Правила форума

  • В этом разделе создание новых тем Запрещено.
  • Для создания новых тем пользуйтесь Корневым разделом DVD и HD фильмы.
Начать новую темуОтветить на тему  [ 1 сообщение ] 
Торрент файл
Размер: 6.84 GB • Зарегистрирован: 5 лет 9 месяцев • Статус: Проверено
Скачан: 51 раз • Желающих скачать: 0 • Поблагодарили: 6 раз
 Раздают: 0  |  0 KB/s  ]   Качают: 0  |  0 KB/s  ] 
 Полного источника не было 3 года 2 месяца 
Сообщения
 Добавлено: 2011-02-18 17:22
Top-releaser
Аватара пользователя
Стаж: 7 лет 3 месяца
Возраст: 25
Сообщений: 1036
Спасибок: 2694
Лайков: 9
4.3.2.1 / 4.3.2.1

«4 подруги, 3 дня, 2 города, 1 шанс...»


Изображение



Год выхода: 2010
Страна: Великобритания

Жанр: триллер, криминал
Продолжительность: 01:51:55
Перевод: Дублированный [лицензия]

Режиссер: Hоэль Кларк, Марк Дэвис
Сценарий: Ноэль Кларк
Продюсер: Дин О’Тул, Дэймон Брайант, Ноэль Кларк
Оператор: Франко Пеззино
Композитор: Адам Льюис, Барнеби Робсон

В ролях: Эмма Робертс, Ноэль Кларк, Тэмсин Эгертон, Офелия Ловибонд, Шаника Уоррен-Мерленд, Джейкоб Андерсон, Николас Бриггс, Натали Бриттон, Линзи Коккер

Описание: В то время как Джоанн приходится работать в супермаркете, остальные поглощены своими приключениями: Кассандра стремится в Нью-Йорк, чтобы встретиться с другом из Интернета; Кэррис борется за права женщин, а Шэннон направляется на встречу с отцом. Но сама судьба сталкивает их отдельные миры и друг друга. У 4-х девушек всего 3 дня, которые они никогда не забудут и 2 города, которые они посетят, то есть… если они выживут.

KinoPoisk.ru: 6.235
IMDb.com: 5.9/10

pаздача группы:Изображение

Качество: BDRip 720p
Формат: MKV

Видео: MPEG4 Video (H264) 1280x544 23.98fps
Аудио 1: Russian Dolby AC3 48000Hz 6ch
Аудио 2: English DTS 48000Hz 6ch

Изображение

MediaInfo
General
Unique ID : 200681605617122835927141199985595557461 (0x96F9DF1117E0C96EB1557650F0B2A655)
Complete name : E:\4.3.2.1.2010.BDRip.720p.mkv
Format : Matroska
File size : 6.84 GiB
Duration : 1h 56mn
Overall bit rate : 8 393 Kbps
Movie name : 4.3.2.1 / 2010 / BDRip (720p) - Kinozal.TV - HD
Encoded date : UTC 2011-02-17 21:36:56
Writing application : mkvmerge v4.4.0 ('Die Wiederkehr') built on Oct 31 2010 21:52:48
Writing library : libebml v1.0.0 + libmatroska v1.0.0

Video
ID : 1
Format : AVC
Format/Info : Advanced Video Codec
Format profile : High@L3.1
Format settings, CABAC : Yes
Format settings, ReFrames : 5 frames
Format settings, GOP : M=4, N=16
Muxing mode : Header stripping
Codec ID : V_MPEG4/ISO/AVC
Duration : 1h 56mn
Bit rate : 6 505 Kbps
Width : 1 280 pixels
Height : 544 pixels
Display aspect ratio : 2.35:1
Frame rate : 23.976 fps
Color space : YUV
Chroma subsampling : 4:2:0
Bit depth : 8 bits
Scan type : Progressive
Bits/(Pixel*Frame) : 0.390
Stream size : 5.16 GiB (75%)
Title : 4.3.2.1 / 2010 / BDRip (720p) - Kinozal.TV - HD
Writing library : x264 core 105 r1732 2b04482
Encoding settings : cabac=1 / ref=5 / deblock=1:0:0 / analyse=0x3:0x113 / me=umh / subme=7 / psy=1 / psy_rd=1.00:0.00 / mixed_ref=1 / me_range=16 / chroma_me=1 / trellis=1 / 8x8dct=1 / cqm=0 / deadzone=21,11 / fast_pskip=0 / chroma_qp_offset=-2 / threads=12 / sliced_threads=0 / nr=0 / decimate=1 / interlaced=0 / constrained_intra=0 / bframes=3 / b_pyramid=2 / b_adapt=1 / b_bias=0 / direct=1 / weightb=1 / open_gop=0 / weightp=2 / keyint=250 / keyint_min=23 / scenecut=40 / intra_refresh=0 / rc_lookahead=40 / rc=2pass / mbtree=1 / bitrate=6505 / ratetol=1.0 / qcomp=0.60 / qpmin=10 / qpmax=51 / qpstep=4 / cplxblur=20.0 / qblur=0.5 / ip_ratio=1.40 / aq=1:1.00
Language : English

Audio #1
ID : 2
Format : AC-3
Format/Info : Audio Coding 3
Mode extension : CM (complete main)
Muxing mode : Header stripping
Codec ID : A_AC3
Duration : 1h 56mn
Bit rate mode : Constant
Bit rate : 384 Kbps
Channel(s) : 6 channels
Channel positions : Front: L C R, Side: L R, LFE
Sampling rate : 48.0 KHz
Bit depth : 16 bits
Compression mode : Lossy
Stream size : 321 MiB (5%)
Title : Дублированный
Language : Russian

Audio #2
ID : 3
Format : DTS
Format/Info : Digital Theater Systems
Muxing mode : Header stripping
Codec ID : A_DTS
Duration : 1h 56mn
Bit rate mode : Constant
Bit rate : 1 510 Kbps
Channel(s) : 6 channels
Channel positions : Front: L C R, Side: L R, LFE
Sampling rate : 48.0 KHz
Bit depth : 24 bits
Compression mode : Lossy
Stream size : 1.23 GiB (18%)
Title : Английский
Language : English

Свернуть
Скриншоты
Изображение
Изображение
Изображение
Изображение
Свернуть





release by FoTP
Не в сети
Профиль  
Начать новую темуОтветить на тему  [ 1 сообщение ] 
Вы не можете начинать темы
Вы не можете отвечать на сообщения
Вы не можете редактировать свои сообщения
Вы не можете удалять свои сообщения