Правила форума

  • В этом разделе создание новых тем Запрещено.
  • Для создания новых тем пользуйтесь Корневым разделом DVD и HD фильмы.
Начать новую темуОтветить на тему  [ Сообщений: 3 ] 
Торрент файл
Размер: 9.12 GB • Зарегистрирован: 3 года 3 месяца • Статус: Проверено
Скачан: 70 раз • Желающих скачать: 0 • Поблагодарили: 13 раз
 Раздают: 0  |  0 KB/s  ]   Качают: 0  |  0 KB/s  ] 
 Полного источника не было 1 год 9 месяцев 
Сообщения
 Добавлено: 2013-09-05 15:21
Аватара пользователя
Стаж: 9 лет 1 месяц
Сообщений: 7975
Спасибок: 122188
Лайков: 1191
42 / 42

«In a game divided by color, he made us see greatness.»

Изображение


Год выпуска: 2013
Страна: Изображение США
Жанр: драма, биография, спорт
Продолжительность: 02:08:14
Субтитры: Русские, украинские, английские
Перевод: Профессиональный (многоголосый, закадровый) [Лицензия]


Режиссер: Брайан Хелгеленд
Сценарий: Брайан Хелгеленд
Продюсер: Томас Тулл, Джейсон Кларк, Дик Кук
Оператор: Дон Бёрджесс
Композитор: Марк Айшем

В ролях: Харрисон Форд, Чэдвик Боузман, Николь Бахари, Кристофер Мелони, Райан Мерриман, Лукас Блэк, Андре Холлэнд, Алан Тьюдик, Хамиш Линклэйтер, Т.Р. Найт, Джон К. МакГинли, Тоби Хасс, Макс Гэйл, Брэд Бейер, Джеймс Пикенс мл., Джино Энтони Песи, Бретт Каллен, Джэми Холлидэй

Описание: Фильм посвящен тому, как Брэнч Рики и Джеки Робинсон уничтожили сегрегацию в бейсболе в 1947 году.

Изображение Изображение

Раздача группы: Изображение

Качество: BDRip (1080p)
Формат: Matroska
Видео: MPEG-4 AVC, 7657 Кбит/с, 1920x800
Аудио №1: Русский (AC3, 48,0 КГц, 2 ch, 192 Кбит/c)
Аудио №2: Английский (DTS, 48,0 КГц, 6 ch, 1510 Кбит/c)
Аудио №3: Английский (AC3, 48,0 КГц, 6 ch, 640 Кбит/c) Комментарии

MediaInfo
Общее
Уникальный идентификатор : 251897826024309187824757551924721095778 (0xBD81C1B0F8CC11E48A37585839AA1462)
Полное имя : C:\Фильмы\42.2013.1080p.BluRay.Rus.2xEng.R.G.Daredevil.mkv
Формат : Matroska
Версия формата : Version 2
Размер файла : 9,12 Гбайт
Продолжительность : 2 ч. 8 м.
Общий поток : 10,2 Мбит/сек
Название фильма : 42 (2013) - Release for HDCLUB
Дата кодирования : UTC 2013-08-18 12:14:45
Программа кодирования : mkvmerge v3.4.0 ('Rapunzel') built on May 15 2010 09:38:20
Библиотека кодирования : libebml v0.8.0 + libmatroska v0.9.0

Видео
Идентификатор : 1
Формат : AVC
Формат/Информация : Advanced Video Codec
Профиль формата : High@L4.1
Параметр CABAC формата : Да
Параметр ReFrames формата : 5 кадров
Идентификатор кодека : V_MPEG4/ISO/AVC
Продолжительность : 2 ч. 8 м.
Битрейт : 7642 Кбит/сек
Ширина : 1920 пикселей
Высота : 800 пикселей
Соотношение сторон : 2,40:1
Режим частоты кадров : Постоянный
Частота кадров : 23,976 кадра/сек
Цветовое пространство : YUV
Субдискретизация насыщенности : 4:2:0
Битовая глубина : 8 бит
Тип развёртки : Прогрессивная
Бит/(Пиксели*Кадры) : 0.207
Размер потока : 6,85 Гбайт (75%)
Заголовок : 42 (2013) - Release for HDCLUB
Библиотека кодирования : x264 core 133 r2334 a3ac64b
Настройки программы : cabac=1 / ref=5 / deblock=1:-3:-3 / analyse=0x3:0x133 / me=tesa / subme=11 / psy=1 / psy_rd=1.00:0.00 / mixed_ref=1 / me_range=16 / chroma_me=1 / trellis=2 / 8x8dct=1 / cqm=0 / deadzone=21,11 / fast_pskip=0 / chroma_qp_offset=-2 / threads=12 / lookahead_threads=2 / sliced_threads=0 / nr=0 / decimate=1 / interlaced=0 / bluray_compat=0 / constrained_intra=0 / bframes=8 / b_pyramid=2 / b_adapt=2 / b_bias=0 / direct=3 / weightb=1 / open_gop=0 / weightp=2 / keyint=250 / keyint_min=23 / scenecut=40 / intra_refresh=0 / rc=crf / mbtree=0 / crf=16.1 / qcomp=0.75 / qpmin=0 / qpmax=69 / qpstep=4 / ip_ratio=1.40 / pb_ratio=1.30 / aq=1:0.80
Язык : English
Default : Да
Forced : Нет
Коэффициенты матрицы : BT.709

Аудио #1
Идентификатор : 2
Формат : AC-3
Формат/Информация : Audio Coding 3
Профиль формата : Dolby Digital
Расширение режима : CM (complete main)
Параметр Endianness формата : Big
Идентификатор кодека : A_AC3
Продолжительность : 2 ч. 8 м.
Вид битрейта : Постоянный
Битрейт : 192 Кбит/сек
Каналы : 2 канала
Расположение каналов : Front: L R
Частота : 48,0 КГц
Битовая глубина : 16 бит
Метод сжатия : С потерями
Размер потока : 176 Мбайт (2%)
Заголовок : AC3 2.0 @ 192 kbps - MVO, Blu-ray CEE
Язык : Russian
Default : Да
Forced : Нет

Аудио #2
Идентификатор : 3
Формат : DTS
Формат/Информация : Digital Theater Systems
Режим : 16
Параметр Endianness формата : Big
Идентификатор кодека : A_DTS
Продолжительность : 2 ч. 8 м.
Вид битрейта : Постоянный
Битрейт : 1509 Кбит/сек
Каналы : 6 каналов
Расположение каналов : Front: L C R, Side: L R, LFE
Частота : 48,0 КГц
Битовая глубина : 24 бит
Метод сжатия : С потерями
Задержка видео : 11 мс.
Размер потока : 1,35 Гбайт (15%)
Заголовок : DTS 5.1 @ 1536 kbps
Язык : English
Default : Нет
Forced : Нет

Аудио #3
Идентификатор : 4
Формат : AC-3
Формат/Информация : Audio Coding 3
Расширение режима : CM (complete main)
Параметр Endianness формата : Big
Идентификатор кодека : A_AC3
Продолжительность : 2 ч. 8 м.
Вид битрейта : Постоянный
Битрейт : 640 Кбит/сек
Каналы : 6 каналов
Расположение каналов : Front: L C R, Side: L R, LFE
Частота : 48,0 КГц
Битовая глубина : 16 бит
Метод сжатия : С потерями
Размер потока : 587 Мбайт (6%)
Заголовок : AC3 5.1 @ 640 kbps - Descriptive
Язык : English
Default : Нет
Forced : Нет

Текст #1
Идентификатор : 5
Формат : UTF-8
Идентификатор кодека : S_TEXT/UTF8
Идентификатор кодека/Информация : UTF-8 Plain Text
Заголовок : Forced, iTunes
Язык : Russian
Default : Да
Forced : Нет

Текст #2
Идентификатор : 6
Формат : UTF-8
Идентификатор кодека : S_TEXT/UTF8
Идентификатор кодека/Информация : UTF-8 Plain Text
Заголовок : iTunes
Язык : Russian
Default : Нет
Forced : Нет

Текст #3
Идентификатор : 7
Формат : UTF-8
Идентификатор кодека : S_TEXT/UTF8
Идентификатор кодека/Информация : UTF-8 Plain Text
Заголовок : iTunes
Язык : Ukrainian
Default : Нет
Forced : Нет

Текст #4
Идентификатор : 8
Формат : UTF-8
Идентификатор кодека : S_TEXT/UTF8
Идентификатор кодека/Информация : UTF-8 Plain Text
Заголовок : Forced, iTunes
Язык : English
Default : Нет
Forced : Нет

Текст #5
Идентификатор : 9
Формат : UTF-8
Идентификатор кодека : S_TEXT/UTF8
Идентификатор кодека/Информация : UTF-8 Plain Text
Язык : English
Default : Нет
Forced : Нет

Текст #6
Идентификатор : 10
Формат : UTF-8
Идентификатор кодека : S_TEXT/UTF8
Идентификатор кодека/Информация : UTF-8 Plain Text
Заголовок : SDH
Язык : English
Default : Нет
Forced : Нет

Текст #7
Идентификатор : 11
Формат : UTF-8
Идентификатор кодека : S_TEXT/UTF8
Идентификатор кодека/Информация : UTF-8 Plain Text
Заголовок : SDH-COLORED
Язык : English
Default : Нет
Forced : Нет

Меню
00:00:00.000 : en:00:00:00.000
00:09:07.630 : en:00:09:07.630
00:19:42.932 : en:00:19:42.932
00:31:42.526 : en:00:31:42.526
00:40:10.325 : en:00:40:10.325
00:49:49.612 : en:00:49:49.612
01:00:34.297 : en:01:00:34.297
01:10:33.479 : en:01:10:33.479
01:21:25.589 : en:01:21:25.589
01:31:00.830 : en:01:31:00.830
01:40:27.688 : en:01:40:27.688
01:50:13.857 : en:01:50:13.857
01:57:56.069 : en:01:57:56.069
Свернуть
Скриншоты
Изображение
Изображение
Изображение
Свернуть


Последний раз редактировалось krazz 2013-09-11 23:00, всего редактировалось 1 раз.
Не в сети
Профиль  
 Добавлено: 2013-09-06 02:31 (спустя 11 часов)
Аватара пользователя
Стаж: 8 лет 7 месяцев
Сообщений: 1702
Спасибок: 104
Лайков: 152
опять про ущемления ниггеров? нудная тема...
как фильм?
Не в сети
Профиль  
 Добавлено: 2013-09-12 16:27 (спустя 6 дней)
Аватара пользователя
Стаж: 8 лет 11 месяцев
Сообщений: 170
Спасибок: 139
фильм хорошии, расистам не смотреть
Не в сети
Профиль  
Начать новую темуОтветить на тему  [ Сообщений: 3 ] 
Вы не можете начинать темы
Вы не можете отвечать на сообщения
Вы не можете редактировать свои сообщения
Вы не можете удалять свои сообщения