Правила форума

  • В этом разделе создание новых тем Запрещено.
  • Для создания новых тем пользуйтесь Корневым разделом DVD и HD фильмы.
Начать новую темуОтветить на тему  [ Сообщений: 7 ] 
Торрент файл
Размер: 14.4 GB • Зарегистрирован: 2 года 7 месяцев • Статус: Проверено
Скачан: 332 раза • Желающих скачать: 0 • Поблагодарили: 138 раз
 Раздают: 1  |  0 KB/s  ]   Качают: 0  |  0 KB/s  ] 
Сообщения
 Добавлено: 2014-04-10 01:23
Аватара пользователя
Стаж: 9 лет 1 месяц
Сообщений: 8083
Спасибок: 122313
Лайков: 1195
47 ронинов / 47 Ronin

«This Christmas, seize eternity»

Изображение


Год выпуска: 2013
Страна: Изображение США
Жанр: фэнтези, боевик, приключения
Продолжительность: 01:58:43
Субтитры: Русские, английские, украинские
Перевод: Профессиональный (полное дублирование) [Лицензия]


Режиссер: Карл Ринш
Сценарий: Крис Морган, Хуссейн Амини, Уолтер Хамада
Продюсер: Памела Эбди, Эрик МакЛеод, Скотт Стубер
Оператор: Джон Мэтисон
Композитор: Илан Эшкери

В ролях: Киану Ривз, Ринко Кикучи, Кэри-Хироюки Тагава, Хироюки Санада, Таданобу Асано, Того Игава, Йорик ван Вагенинген, Ко Шибасаки, Рик Жене, Харука Абе, Джин Аканиши


Описание: Таинственный странник, преданный всеми, проданный в рабство, избранный судьбой вершить месть, станет одним из 47 воинов, бросивших вызов смерти. Явившись из другого мира, он восстанет против темных сил, чтобы защитить свою запретную любовь.

Изображение Изображение

Раздача группы: Изображение

Качество: BDRip (1080p)
Формат: Matroska
Видео: MPEG-4 AVC, 14.1 Мбит/с, 1920x800
Аудио №1: Русский (DTS, 48,0 КГц, 6 ch, 768 Кбит/c)
Аудио №2: Русский (AC3, 48,0 КГц, 6 ch, 640 Кбит/c)
Аудио №3: Русский (DTS, 48,0 КГц, 6 ch, 1510 Кбит/c)

MediaInfo
Общее
Уникальный идентификатор : 195215806249001474359898978551752348083 (0x92DD325A18BA3516B8C3FCCF9060D1B3)
Полное имя : D:\47.ронинов-47.Ronin.(2013).BDRip.[1080p].mkv
Формат : Matroska
Версия формата : Version 2
Размер файла : 14,4 Гбайт
Продолжительность : 1 ч. 58 м.
Общий поток : 17,4 Мбит/сек
Название фильма : 47 Ronin (2013)
Дата кодирования : UTC 2014-04-23 11:19:00
Программа кодирования : mkvmerge v5.7.0 ('The Whirlwind') built on Aug 7 2012 14:11:40
Библиотека кодирования : libebml v1.2.3 + libmatroska v1.3.0
Attachment : Yes

Видео
Идентификатор : 1
Формат : AVC
Формат/Информация : Advanced Video Codec
Профиль формата : High@L4.1
Параметр CABAC формата : Да
Параметр ReFrames формата : 5 кадров
Идентификатор кодека : V_MPEG4/ISO/AVC
Продолжительность : 1 ч. 58 м.
Битрейт : 14,1 Мбит/сек
Ширина : 1920 пикселей
Высота : 800 пикселей
Соотношение сторон : 2,40:1
Режим частоты кадров : Постоянный
Частота кадров : 23,976 кадра/сек
Цветовое пространство : YUV
Субдискретизация насыщенности : 4:2:0
Битовая глубина : 8 бит
Тип развёртки : Прогрессивная
Бит/(Пиксели*Кадры) : 0.383
Размер потока : 11,7 Гбайт (81%)
Заголовок : 47.ронинов-47.Ronin.(2013).BDRip.[1080p]
Библиотека кодирования : x264 core 140 r2377+40 929f149 tMod [8-bit@4:2:0 X86]
Настройки программы : cabac=1 / ref=5 / deblock=1:-3:-3 / analyse=0x3:0x113 / me=tesa / subme=10 / psy=1 / fade_compensate=0.00 / psy_rd=1.10:0.00 / mixed_ref=1 / me_range=24 / chroma_me=1 / trellis=2 / 8x8dct=1 / cqm=0 / deadzone=21,11 / fast_pskip=0 / chroma_qp_offset=-2 / threads=12 / lookahead_threads=2 / sliced_threads=0 / nr=0 / decimate=0 / interlaced=0 / bluray_compat=0 / constrained_intra=0 / fgo=0 / bframes=8 / b_pyramid=2 / b_adapt=2 / b_bias=0 / direct=3 / weightb=1 / open_gop=0 / weightp=2 / keyint=250 / keyint_min=23 / scenecut=40 / intra_refresh=0 / rc=crf / mbtree=0 / crf=17.0000 / qcomp=0.70 / qpmin=0:0:0 / qpmax=69:69:69 / qpstep=4 / ip_ratio=1.30 / pb_ratio=1.10 / aq=4:0.75 / aq-sensitivity=10.00 / aq-factor=1.00:1.00:1.00 / aq2=0 / aq3=0
Язык : English
Default : Да
Forced : Нет

Аудио #1
Идентификатор : 2
Формат : DTS
Формат/Информация : Digital Theater Systems
Идентификатор кодека : A_DTS
Продолжительность : 1 ч. 58 м.
Вид битрейта : Постоянный
Битрейт : 755 Кбит/сек
Каналы : 6 каналов
Расположение каналов : Front: L C R, Side: L R, LFE
Частота : 48,0 КГц
Битовая глубина : 24 бит
Метод сжатия : С потерями
Размер потока : 641 Мбайт (4%)
Заголовок : DTS 5.1 / 768 kbps / Dub (Blu-ray CEE)
Язык : Russian
Default : Да
Forced : Нет

Аудио #2
Идентификатор : 3
Формат : AC-3
Формат/Информация : Audio Coding 3
Расширение режима : CM (complete main)
Параметр Endianness формата : Big
Идентификатор кодека : A_AC3
Продолжительность : 1 ч. 58 м.
Вид битрейта : Постоянный
Битрейт : 640 Кбит/сек
Каналы : 6 каналов
Расположение каналов : Front: L C R, Side: L R, LFE
Частота : 48,0 КГц
Битовая глубина : 16 бит
Метод сжатия : С потерями
Размер потока : 543 Мбайт (4%)
Заголовок : AC3 5.1 / 640 kbps / Dub (Blu-ray CEE)
Язык : Russian
Default : Нет
Forced : Нет

Аудио #3
Идентификатор : 4
Формат : DTS
Формат/Информация : Digital Theater Systems
Идентификатор кодека : A_DTS
Продолжительность : 1 ч. 58 м.
Вид битрейта : Постоянный
Битрейт : 1510 Кбит/сек
Каналы : 6 каналов
Расположение каналов : Front: L C R, Side: L R, LFE
Частота : 48,0 КГц
Битовая глубина : 24 бит
Метод сжатия : С потерями
Задержка видео : 11 мс.
Размер потока : 1,25 Гбайт (9%)
Заголовок : DTS 5.1 / 1536 kbps / Original
Язык : English
Default : Нет
Forced : Нет

Текст #1
Идентификатор : 5
Формат : UTF-8
Идентификатор кодека : S_TEXT/UTF8
Идентификатор кодека/Информация : UTF-8 Plain Text
Заголовок : Forced
Язык : Russian
Default : Да
Forced : Нет

Текст #2
Идентификатор : 6
Формат : UTF-8
Идентификатор кодека : S_TEXT/UTF8
Идентификатор кодека/Информация : UTF-8 Plain Text
Заголовок : Full
Язык : Russian
Default : Нет
Forced : Нет

Текст #3
Идентификатор : 7
Формат : UTF-8
Идентификатор кодека : S_TEXT/UTF8
Идентификатор кодека/Информация : UTF-8 Plain Text
Заголовок : Full
Язык : Ukrainian
Default : Нет
Forced : Нет

Текст #4
Идентификатор : 8
Формат : UTF-8
Идентификатор кодека : S_TEXT/UTF8
Идентификатор кодека/Информация : UTF-8 Plain Text
Заголовок : Full
Язык : English
Default : Нет
Forced : Нет

Текст #5
Идентификатор : 9
Формат : UTF-8
Идентификатор кодека : S_TEXT/UTF8
Идентификатор кодека/Информация : UTF-8 Plain Text
Заголовок : SDH
Язык : English
Default : Нет
Forced : Нет

Текст #6
Идентификатор : 10
Формат : UTF-8
Идентификатор кодека : S_TEXT/UTF8
Идентификатор кодека/Информация : UTF-8 Plain Text
Заголовок : SDH (Colored)
Язык : English
Default : Нет
Forced : Нет

Меню
00:00:00.000 : en:Chapter 1
00:04:27.558 : en:Chapter 2
00:11:12.088 : en:Chapter 3
00:16:27.820 : en:Chapter 4
00:20:11.835 : en:Chapter 5
00:26:52.319 : en:Chapter 6
00:31:02.944 : en:Chapter 7
00:36:10.626 : en:Chapter 8
00:43:36.613 : en:Chapter 9
00:50:14.511 : en:Chapter 10
00:54:59.421 : en:Chapter 11
00:59:54.048 : en:Chapter 12
01:09:57.735 : en:Chapter 13
01:13:59.017 : en:Chapter 14
01:19:12.247 : en:Chapter 15
01:24:17.385 : en:Chapter 16
01:33:00.825 : en:Chapter 17
01:38:55.554 : en:Chapter 18
01:44:41.608 : en:Chapter 19
01:48:38.303 : en:Chapter 20
Свернуть
Знаете ли вы, что...
По словам художника по костюмам Пенни Роуз, у всех были костюмы, подогнанные в соответствии с фоном: «Основываясь на культуре, форма одежды должна была быть одной — кимоно, но мы совершили своего рода «модный» переворот в этом направлении и добавили различных цветов».

По словам Киану Ривза, специально ради актеров второго плана съемки сначала проходили на японском и уже затем на английском языке.

Вместе с Киану Ривзом роли были отданы пяти японским актерам (Хироюки Санада, Таданобу Асано, Ринко Кикути, Ко Шибасаки и Джин Аканиши), чтобы сделать историю более достоверной, вместо того, чтобы выбрать актеров, узнаваемых в США.

Стрелы для фильма были сделаны известным европейским мастером Майклом Рипом (Michael Reape). Небольшое количество стрел было выполнено в «музейном» качестве для съемки крупным планом.

Это режиссерский дебют Карла Ринша.

Специально для фильма на съемочную площадку в Лондон из Италии привезли 300 побегов бамбука, каждый высотой по 15 метров, и метровые деревья бонсай возрастом более ста лет.

Свернуть
"Скриншоты"
Изображение
Изображение
Изображение
Свернуть
Не в сети
Профиль  
 Добавлено: 2014-04-10 01:28 (спустя 4 минуты)
Стаж: 2 года 9 месяцев
Сообщений: 11
Отличный фильмец. :men:
Не в сети
Профиль  
 Добавлено: 2014-04-10 02:27 (спустя 58 минут)
Аватара пользователя
Стаж: 9 лет 1 месяц
Сообщений: 2152
Спасибок: 778
Лайков: 14
Давно хотел посмотреть, несмотря на оценки. Отдельное спасибо за 1080p.
_________________
PSN
Изображение
Свернуть
Изображение
Не в сети
Профиль  
 Добавлено: 2014-04-10 17:18 (спустя 14 часов)
Стаж: 2 года 9 месяцев
Сообщений: 3
Перевод iTunes Russia?
Не в сети
Профиль  
 Добавлено: 2014-04-19 19:14 (спустя 9 дней)
Аватара пользователя
Стаж: 7 лет 11 месяцев
Сообщений: 22
Стоит обратить внимание на красочность фильма :co_ol:
Не в сети
Профиль  
 Добавлено: 2014-04-28 18:59 (спустя 8 дней)
Аватара пользователя
Стаж: 7 лет 5 месяцев
Сообщений: 231
Лайков: 2
После фильма Киндзи Фукасаку "Падение замка Ако" этот фильм выглядит как дешевая подделка.
Ожидал от фильма с Киану Ривзом большего. А вместо красивых эпичных сцен спецэффекты и маскарад.
Сравните в японском и голливудском фильмах финальную сцену сэппуку.
В общем, японская легенда опошлена. Причем легенда настоящая. Потому что могилы 47 ронинов до сих пор почитаются на родине. За ними ухаживают, к ним приходят поклоняться.

Почитателям дзидайгэки настоятельно не рекомендую. Одежда, прически, убранство полностью не соответствуют тому времени. Смотрел с перемотками за 4 раза.
 Bucho нравится это.
Не в сети
Профиль  
 Добавлено: 2014-08-09 17:56 (спустя 3 месяца 10 дней)
Аватара пользователя
Стаж: 8 лет 6 месяцев
Сообщений: 529
Хороший фильм + спец эффекты :co_ol:
Не в сети
Профиль  
Начать новую темуОтветить на тему  [ Сообщений: 7 ] 
Вы не можете начинать темы
Вы не можете отвечать на сообщения
Вы не можете редактировать свои сообщения
Вы не можете удалять свои сообщения