Правила форума

  • В этом разделе создание новых тем Запрещено.
  • Для создания новых тем пользуйтесь Корневым разделом DVD и HD фильмы.
Начать новую темуОтветить на тему  [ Сообщений: 5 ] 
Торрент файл
Размер: 26.16 GB • Зарегистрирован: 3 года 9 месяцев • Статус: Проверено
Скачан: 38 раз • Желающих скачать: 0 • Поблагодарили: 13 раз
 Раздают: 0  |  0 KB/s  ]   Качают: 0  |  0 KB/s  ] 
 Полного источника не было 2 дня 10 часов 
Сообщения
 Добавлено: 2013-03-01 18:49
Модератор релиз-группы
Аватара пользователя
Стаж: 7 лет 8 месяцев
Возраст: 29
Сообщений: 9789
Спасибок: 23732
Лайков: 103
Изображение

500 дней лета
(500) Days of Summer


Год выпуска: 2009
Страна: США
Слоган: «Это не любовная история, это история о любви»
Жанр: мелодрама, комедия
Продолжительность: 01:35:05
Перевод: Профессиональный (полное дублирование)
Режиссер: Марк Уэбб
Сценарий: Скотт Нейстадтер, Майкл Х. Уэбер
Продюсер: Мэйсон Новик, Джессика Тучински, Марк Уотерс, Стивен Дж. Вульф, Вероника Брукс
Оператор: Эрик Стилберг
Композитор: Майкл Дэнна, Роб Симонсен
В ролях: Джозеф Гордон-Левитт, Зои Дешанель, Джеффри Аренд, Хлоя Грейс Морец, Мэттью Грей Гублер, Кларк Грегг, Патриция Белчер, Рейчел Бостон, Минка Келли, Чарльз Уолкер, Йен Рид Кеслер, Дэррил Алан Рид
Бюджет: $7 500 000
Сборы в США: $32 391 374
Сборы в России: $555 911
Сборы в мире: $58 559 042
Мировая премьера: 17 января 2009
Релиз на DVD: 18 марта 2010, «Двадцатый Век Фокс СНГ»
Описание: Главный герой работает в агентстве, выпускающем поздравительные открытки. Он придумывает все те забавные подписи, которые мы с Вами читаем на них. Молодой человек влюбляется в свою коллегу и решает, что она - «та, единственная». Но 500 дней их отношений показывают герою, что путь к счастью непредсказуем, неконтролируем и - невероятно забавен!

Изображение User Rating: 7.832 (78 846)
Изображение User Rating: 7.80 (210 185)
MPAA: PG-13 - Детям до 13 лет просмотр не желателен
Раздача группы: Изображение
Релиз группы: Изображение
Изображение
Качество: BD-Remux, 1080p
Формат: MKV
Видео: AVC; 1920x1080 (16:9); 23,976 fps
Аудио №1: русский; AC3; 384 Kbps; CBR; 6 ch - дублированный (с лицензии)
Аудио №2: английский; DTS-HD; VBR; 6 ch; 24 bit - оригинал
Аудио №3: английский; AC3; 224 Kbps; CBR; 2 ch - (комментарии режиссёра, сценаристов и актёра)
Аудио №4: английский; AC3; 448 Kbps; CBR; 6 ch - (Descriptive - диктор рассказывает о происходящем на экране)

Субтитры №1: русские
Субтитры №2: русские
Субтитры №3: украинские
Субтитры №4: английские
Субтитры №5: русские

mediainfo
Общее
Уникальный идентификатор : 238029331897830964125532916026860248774 (0xB312C823AE63BF10B3036DDC40721EC6)
Полное имя : D:\TORRENT\(500) Days of Summer.2009.BD.Remux.1080p.h264.Rus.Eng.Commentary.mkv
Формат : Matroska
Размер файла : 26,2 Гбайт
Продолжительность : 1 ч. 35 м.
Общий поток : 39,4 Мбит/сек
Дата кодирования : UTC 2010-03-18 16:14:12
Программа кодирования : mkvmerge v3.2.0 ('Beginnings') built on Feb 12 2010 16:46:17
Библиотека кодирования : libebml v0.7.9 + libmatroska v0.8.1

Видео
Идентификатор : 1
Формат : AVC
Формат/Информация : Advanced Video Codec
Профиль формата : High@L4.1
Параметр CABAC формата : Да
Параметр ReFrames формата : 4 кадра
Режим смешивания : Container profile=Unknown@0.0
Идентификатор кодека : V_MPEG4/ISO/AVC
Продолжительность : 1 ч. 35 м.
Вид битрейта : Переменный
Битрейт : 35,7 Мбит/сек
Максимальный битрейт : 37,0 Мбит/сек
Ширина : 1920 пикс.
Высота : 1080 пикс.
Соотношение сторон : 16:9
Частота кадров : 23,976 кадр/сек
Цветовое пространство : YUV
Подвыборка цветности : 4:2:0
Битовая глубина : 8 бит
Тип развёртки : Прогрессивная
Бит/(Пиксели*Кадры) : 0.717
Размер потока : 23,7 Гбайт (91%)
Язык : English
Основные цвета : BT.709-5, BT.1361, IEC 61966-2-4, SMPTE RP177
Характеристики трансфера : BT.709-5, BT.1361
Коэффициенты матрицы : BT.709-5, BT.1361, IEC 61966-2-4 709, SMPTE RP177

Аудио #1
Идентификатор : 2
Формат : AC-3
Формат/Информация : Audio Coding 3
Расширение режима : CM (complete main)
Идентификатор кодека : A_AC3
Продолжительность : 1 ч. 35 м.
Вид битрейта : Постоянный
Битрейт : 384 Кбит/сек
Каналы : 6 каналов
Расположение каналов : Front: L C R, Side: L R, LFE
Частота : 48,0 КГц
Битовая глубина : 16 бит
Метод сжатия : С потерями
Размер потока : 261 Мбайт (1%)
Заголовок : AC3 5.1 384 kbps
Язык : Russian

Аудио #2
Идентификатор : 3
Формат : DTS
Формат/Информация : Digital Theater Systems
Профиль формата : MA / Core
Идентификатор кодека : A_DTS
Продолжительность : 1 ч. 35 м.
Вид битрейта : Переменный
Битрейт : 1876 Кбит/сек / 1510 Кбит/сек
Каналы : 6 каналов
Расположение каналов : Front: L C R, Side: L R, LFE
Частота : 48,0 КГц
Битовая глубина : 24 бит
Метод сжатия : Без потерь / Lossy
Заголовок : DTS-HD Master Audio, 5.1, 3405 kbps, 24 bit, Lossless (1536 kbps core)
Язык : English

Аудио #3
Идентификатор : 4
Формат : AC-3
Формат/Информация : Audio Coding 3
Расширение режима : CM (complete main)
Идентификатор кодека : A_AC3
Продолжительность : 1 ч. 35 м.
Вид битрейта : Постоянный
Битрейт : 224 Кбит/сек
Каналы : 2 канала
Расположение каналов : Front: L R
Частота : 48,0 КГц
Битовая глубина : 16 бит
Метод сжатия : С потерями
Размер потока : 152 Мбайт (1%)
Заголовок : Commentary by Director Marc Webb, Writer Michael Weber, Writer Scott Neustadter and Actor Joseph Gordon-Levitt AC3 2.0 224 kbps
Язык : English

Аудио #4
Идентификатор : 5
Формат : AC-3
Формат/Информация : Audio Coding 3
Расширение режима : CM (complete main)
Идентификатор кодека : A_AC3
Продолжительность : 1 ч. 35 м.
Вид битрейта : Постоянный
Битрейт : 448 Кбит/сек
Каналы : 6 каналов
Расположение каналов : Front: L C R, Side: L R, LFE
Частота : 48,0 КГц
Битовая глубина : 16 бит
Метод сжатия : С потерями
Размер потока : 305 Мбайт (1%)
Заголовок : Descriptive AC3 5.1 448 kbps
Язык : English

Текст #1
Идентификатор : 6
Формат : UTF-8
Идентификатор кодека : S_TEXT/UTF8
Идентификатор кодека/Информация : UTF-8 Plain Text
Язык : Russian

Текст #2
Идентификатор : 7
Формат : UTF-8
Идентификатор кодека : S_TEXT/UTF8
Идентификатор кодека/Информация : UTF-8 Plain Text
Заголовок : AirMike73
Язык : Russian

Текст #3
Идентификатор : 8
Формат : UTF-8
Идентификатор кодека : S_TEXT/UTF8
Идентификатор кодека/Информация : UTF-8 Plain Text
Язык : Ukrainian

Текст #4
Идентификатор : 9
Формат : UTF-8
Идентификатор кодека : S_TEXT/UTF8
Идентификатор кодека/Информация : UTF-8 Plain Text
Язык : English

Текст #5
Идентификатор : 10
Формат : UTF-8
Идентификатор кодека : S_TEXT/UTF8
Идентификатор кодека/Информация : UTF-8 Plain Text
Заголовок : Tol'ko nadpisi
Язык : Russian

Меню
00:00:00.000 : en:Main Titles/ The One
00:03:57.779 : en:Consoling Tom
00:07:05.425 : en:Rare Quality
00:09:19.184 : en:Early Days
00:13:34.147 : en:Officially in Love
00:14:22.320 : en:High and Low
00:16:53.429 : en:Office Karaoke
00:19:18.699 : en:Agree to Disagree
00:24:29.927 : en:Progress Report
00:27:00.285 : en:Shopping
00:30:39.755 : en:Keeping it Casual
00:33:27.422 : en:Just Having Fun
00:35:33.506 : en:Lock Up
00:38:14.375 : en:Summer's World
00:43:46.874 : en:Defining Moment
00:52:24.141 : en:Suffering
00:56:47.154 : en:Second Opinion
01:00:26.039 : en:Chance Encounter
01:06:24.731 : en:Expectations/Reality
01:10:49.787 : en:The Cynic
01:15:15.052 : en:Not the One
01:19:00.778 : en:Fresh Start
01:21:22.920 : en:I Just Knew
01:27:08.557 : en:First Day of Autumn/End Titles
Свернуть
"Знаете ли Вы, что..."
  • Цветовая гамма «500 дней лета» специально была подобрана под ярко-синие глаза Зои Дешанель.
  • Когда Том Хенсон (Джозеф Гордон-Левитт) подходит к машине, в отражении он видит не себя, а Хана Соло (Харрисон Форд, кадры из Звездных войн).
Свернуть
Скриншоты

Изображение
Изображение
Изображение
Изображение
Изображение
Изображение
Изображение
Изображение
Свернуть
Не в сети
Профиль  
 Добавлено: 2013-03-13 19:42 (спустя 12 дней)
Стаж: 7 лет 8 месяцев
Сообщений: 105
ваще афигенный фильм, very good
Не в сети
Профиль  
 Добавлено: 2013-03-13 19:49 (спустя 6 минут)
Аватара пользователя
Стаж: 8 лет
Сообщений: 1391
Спасибок: 39
Лайков: 64
ну все, Гордон-Левитт засветился в паре блохбестеров и понёсся ил со дна... :-D
Не в сети
Профиль  
 Добавлено: 2013-03-13 19:52 (спустя 2 минуты)
Модератор релиз-группы
Аватара пользователя
Стаж: 7 лет 8 месяцев
Возраст: 29
Сообщений: 9789
Спасибок: 23732
Лайков: 103
ferguson
я по другим критериям выбираю фильмы для раздач :-D
Не в сети
Профиль  
 Добавлено: 2013-12-21 03:39 (спустя 9 месяцев)
Аватара пользователя
Стаж: 8 лет
Сообщений: 1391
Спасибок: 39
Лайков: 64
volkov2009
никто и не жаловался :-D


Тема поднималась пользователем volkov2009 2013-12-21 03:39.
Не в сети
Профиль  
Начать новую темуОтветить на тему  [ Сообщений: 5 ] 
Вы не можете начинать темы
Вы не можете отвечать на сообщения
Вы не можете редактировать свои сообщения
Вы не можете удалять свои сообщения