Правила форума

  • В этом разделе создание новых тем Запрещено.
  • Для создания новых тем пользуйтесь Корневым разделом DVD и HD фильмы.
Начать новую темуОтветить на тему  [ 1 сообщение ] 
Торрент файл
Размер: 7.93 GB • Зарегистрирован: 5 лет 2 месяца • Статус: Проверено
Скачан: 50 раз • Желающих скачать: 0 • Поблагодарили: 5 раз
 Раздают: 0  |  0 KB/s  ]   Качают: 0  |  0 KB/s  ] 
 Полного источника не было 3 года 2 месяца 
Сообщения
 Добавлено: 2011-09-07 18:04
Модератор релиз-группы
Аватара пользователя
Стаж: 9 лет 1 месяц
Возраст: 97
Сообщений: 11659
Спасибок: 6530
Лайков: 269
7 секунд / 7 seconds

Изображение


Год выпуска: 2005
Страна: США, Швейцария, Великобритания
Жанр: боевик, триллер, криминал
Продолжительность: 01:35:42
Перевод: Профессиональный (многоголосый закадровый) + Оригинальная звуковая дорожка

Режиссёр: Саймон Феллоуз / Simon Fellows
В ролях: и Снайпс, Тэмзин Аутуэйт, Доби Опарей, Джорджина Райлэнс, Pete Lee-Wilson, Серж Сорик, Андрей Ионеску, Elias Ferkin, Богдан Фаркас, Томи Кристин, Adrian Lukis, Стефен Боксер, Адриан Пинтеа, Кори Джонсон, Джордж Энтон, Тэмер Хассан, Lisa Lovbrand, Дэн Бадару, Уильям Армстронг, Уоррен Дероса, Мартин Вилер
Описание: Джон Талливер - вор экстра-класса, способный проникнуть сквозь самые изощренные сигнальные системы. Он серьезный парень и никогда не делает ошибок, но и на старуху бывает проруха. Однажды герою попадает в руки картина Ван Гога, которая стоит миллионы. Вот только то, что сулит большие деньги, порой оборачивается большими неприятностями.
Вскоре после этого похищают напарницу Талливера, и он узнает, что перешел дорожку мафии, охотящейся за шедевром. Обменять картину на заложницу? Но гангстеры не оставляют свидетелей. И тогда у Джона рождается дерзкий, хитроумный план спасения. Но чтобы провернуть его, будет дорога каждая секунда!..
Изображение

Качество: BDRip
Формат: mkv
Видео кодек: MPEG-4(AVC)
Аудио кодек: AC3 (Dolby Digital)
Видео: 1:35:42
Аудио #1: Русский Dolby Digital 5.1 / 48 kHz / 640 kbps [Профессиональный (многоголосый закадровый)]
Аудио #2: Английский Dolby Digital 5.1 / 48 kHz / 640 kbps [Оригинальная звуковая дорожка]
Скриншоты
Изображение
Изображение
Изображение
Изображение
Свернуть

Ьш
Format : Matroska
Format version : Version 1
File size : 7.93 GiB
Duration : 1h 35mn
Overall bit rate : 11.8 Mbps
Encoded date : UTC 2009-07-24 09:27:12
Writing application : mkvmerge v2.1.0 ('Another Place To Fall') built on Aug 19 2007 13:40:07
Writing library : libebml v0.7.7 + libmatroska v0.8.1

Video
ID : 1
Format : AVC
Format/Info : Advanced Video Codec
Format profile : High@L4.1
Format settings, CABAC : Yes
Format settings, ReFrames : 3 frames
Codec ID : V_MPEG4/ISO/AVC
Duration : 1h 35mn
Bit rate : 10.8 Mbps
Width : 1 920 pixels
Height : 1 040 pixels
Display aspect ratio : 16:9
Frame rate : 23.976 fps
Color space : YUV
Chroma subsampling : 4:2:0
Bit depth : 8 bits
Scan type : Progressive
Bits/(Pixel*Frame) : 0.226
Stream size : 6.92 GiB (87%)
Writing library : x264 core 65 r999kMod cc51047
Encoding settings : cabac=1 / ref=3 / deblock=1:0:0 / analyse=0x3:0x133 / me=umh / subme=6 / psy_rd=1.0:0.0 / mixed_ref=1 / me_range=16 / chroma_me=1 / trellis=1 / 8x8dct=1 / cqm=0 / deadzone=21,11 / chroma_qp_offset=-2 / threads=2 / thread_queue=2 / nr=0 / decimate=1 / mbaff=0 / bframes=3 / b_pyramid=1 / b_adapt=1 / b_bias=0 / direct=1 / wpredb=1 / keyint=250 / keyint_min=25 / scenecut=40(pre) / rc=abr / bitrate=10800 / ratetol=1.0 / qcomp=0.60 / qpmin=10 / qpmax=51 / qpstep=4 / ip_ratio=1.40 / pb_ratio=1.30 / aq=1:1.00

Audio #1
ID : 2
Format : AC-3
Format/Info : Audio Coding 3
Mode extension : CM (complete main)
Codec ID : A_AC3
Duration : 1h 35mn
Bit rate mode : Constant
Bit rate : 640 Kbps
Channel(s) : 6 channels
Channel positions : Front: L C R, Side: L R, LFE
Sampling rate : 48.0 KHz
Bit depth : 16 bits
Compression mode : Lossy
Stream size : 439 MiB (5%)

Audio #2
ID : 3
Format : AC-3
Format/Info : Audio Coding 3
Mode extension : CM (complete main)
Codec ID : A_AC3
Duration : 1h 35mn
Bit rate mode : Constant
Bit rate : 640 Kbps
Channel(s) : 6 channels
Channel positions : Front: L C R, Side: L R, LFE
Sampling rate : 48.0 KHz
Bit depth : 16 bits
Compression mode : Lossy
Stream size : 439 MiB (5%)
Свернуть
Не в сети
Профиль  
Начать новую темуОтветить на тему  [ 1 сообщение ] 
Вы не можете начинать темы
Вы не можете отвечать на сообщения
Вы не можете редактировать свои сообщения
Вы не можете удалять свои сообщения