Правила форума

  • В этом разделе создание новых тем Запрещено.
  • Для создания новых тем пользуйтесь Корневым разделом DVD и HD фильмы.
Начать новую темуОтветить на тему  [ 1 сообщение ] 
Торрент файл
Размер: 4.37 GB • Зарегистрирован: 3 года 10 месяцев • Статус: Проверено
Скачан: 49 раз • Желающих скачать: 0 • Поблагодарили: 24 раза
 Раздают: 0  |  0 KB/s  ]   Качают: 0  |  0 KB/s  ] 
 Полного источника не было 16 дней 
Сообщения
 Добавлено: 2014-12-20 17:22
Модератор
Аватара пользователя
Стаж: 5 лет 8 месяцев
Сообщений: 6281
Спасибок: 17333
Лайков: 1633
Изображение

Адреналин / Crank
Адреналин
Crank

«Есть тысяча способов поднять адреналин... Сегодня ему нужны все!»

Изображение
Страна: Изображение США
Жанр: боевик, триллер, криминал
Год выпуска: 2006
Продолжительность: 01:27:42
Перевод: Профессиональный (полное дублирование)
Режиссер: Марк Невелдайн / Mark Neveldine, Брайан Тейлор / Brian Taylor
В ролях: Джейсон Стэйтем (Chev Chelios), Эми Смарт (Eve), Хосе Пабло Кантилльо (Verona), Эфрен Рамирез (Kaylo), Дуайт Йоакам (Doc Miles), Карлос Санс (Carlito), Рено Уилсон (Orlando), Эди Гатеги (Haitian Cabbie), Гленн Хоуертон (Doctor), Джей Ксала (Alex), Кион Янг (Don Kim), Валери Рэй Миллер (Chocolate)
Дублёры: Александр Рахленко (Chev Chelios), Ольга Голованова (Eve), Александр Комлев (Verona), Пётр Иващенко (Kaylo), Никита Прозоровский (Doc Miles), Юрий Деркач (Carlito), Олег Куценко (Orlando), Илья Бледный (Haitian Cabbie), Андрей Ярославцев (Don Kim), Жанна Никонова (Chocolate), Андрей Казанцев (Arab Cabbie), Михаил Тихонов (Warehouse Hood Leader)
Описание: Наемный убийца Чев узнает, что недоброжелатели отравили его редким китайским ядом и отрава начнет действовать немедленно, как только пульс перестанет биться ниже определенной отметки.
И теперь Чеву нужно успеть сделать все свои дела, попробовать раздобыть противоядие и отомстить своим отравителям в прямом смысле слова впопыхах - стараясь создавать вокруг себя как можно более напряженную обстановку и не расслабляться ни на секунду.
Изображение
Изображение
MPAA: R - Лицам до 17 лет обязательно присутствие взрослого
Качество: BDRip 720p
Формат: MKV
Видео: AVC, 1280x720 (16:9), 3187 kbps, 23,976 fps, 0,144 bpp
Аудио: Русский / AC3 / 5.1 / 48 kHz / 384 kbps / 16 bit
Скриншоты
ИзображениеИзображениеИзображение
Свернуть
"Media Info"
General
Unique ID : 181545505174796821320562082358133103723 (0x88946478D0E14A4D8BFB8D09FB299C6B)
Complete name : D:\Crank.Dilogy.2006-2009.BDRip.720p.DUB\Crank.2006.x264.BDRip.720p.DUB.mkv
Format : Matroska
Format version : Version 2
File size : 2.19 GiB
Duration : 1h 27mn
Overall bit rate : 3 570 Kbps
Encoded date : UTC 2012-09-28 11:15:49
Writing application : mkvmerge v5.5.0 ('Healer') built on Apr 6 2012 21:43:24
Writing library : libebml v1.2.3 + libmatroska v1.3.0

Video
ID : 1
Format : AVC
Format/Info : Advanced Video Codec
Format profile : High@L3.1
Format settings, CABAC : Yes
Format settings, ReFrames : 4 frames
Codec ID : V_MPEG4/ISO/AVC
Duration : 1h 27mn
Bit rate : 3 187 Kbps
Width : 1 280 pixels
Height : 720 pixels
Display aspect ratio : 16:9
Frame rate : 23.976 fps
Color space : YUV
Chroma subsampling : 4:2:0
Bit depth : 8 bits
Scan type : Progressive
Bits/(Pixel*Frame) : 0.144
Stream size : 1.91 GiB (87%)
Title : Адреналин
Writing library : x264 core 128 r2216 198a7ea
Encoding settings : cabac=1 / ref=3 / deblock=1:0:0 / analyse=0x3:0x133 / me=hex / subme=7 / psy=1 / psy_rd=1.00:0.00 / mixed_ref=1 / me_range=16 / chroma_me=1 / trellis=1 / 8x8dct=1 / cqm=0 / deadzone=21,11 / fast_pskip=1 / chroma_qp_offset=-2 / threads=12 / lookahead_threads=2 / sliced_threads=0 / nr=0 / decimate=1 / interlaced=0 / bluray_compat=0 / constrained_intra=0 / bframes=3 / b_pyramid=2 / b_adapt=1 / b_bias=0 / direct=1 / weightb=1 / open_gop=0 / weightp=2 / keyint=240 / keyint_min=23 / scenecut=40 / intra_refresh=0 / rc_lookahead=40 / rc=2pass / mbtree=1 / bitrate=3187 / ratetol=1.0 / qcomp=0.60 / qpmin=0 / qpmax=69 / qpstep=4 / cplxblur=20.0 / qblur=0.5 / ip_ratio=1.40 / aq=1:1.00
Language : English
Default : Yes
Forced : No

Audio
ID : 2
Format : AC-3
Format/Info : Audio Coding 3
Mode extension : CM (complete main)
Codec ID : A_AC3
Duration : 1h 27mn
Bit rate mode : Constant
Bit rate : 384 Kbps
Channel(s) : 6 channels
Channel positions : Front: L C R, Side: L R, LFE
Sampling rate : 48.0 KHz
Bit depth : 16 bits
Compression mode : Lossy
Stream size : 241 MiB (11%)
Title : Профессиональный (дублированный)
Language : Russian
Default : Yes
Forced : No
Свернуть
Свернуть
Адреналин 2: Высокое напряжение / Crank: High Voltage
Адреналин: Высокое напряжение
Crank: High Voltage

«Он заряжен, чтобы вернуть свое сердце...»

Изображение
Страна: Изображение США
Жанр: фэнтези, боевик, драма, комедия, криминал
Год выпуска: 2009
Продолжительность: 01:35:50
Перевод: Профессиональный (полное дублирование)
Режиссер: Марк Невелдайн / Mark Neveldine, Брайан Тейлор / Brian Taylor
В ролях: Джейсон Стэйтем (Chev Chelios), Эми Смарт (Eve), Дуайт Йоакам (Doc Miles), Эфрен Рамирез (Venus), Джуланн Чиди Хилл (Dark Chocolate), Хосе Пабло Кантилльо (Ricky Verona), Рено Уилсон (Orlando), Кион Янг (Don Kim), Арт Хсю (Johnny Vang), Джозеф Джулиан Сория (Chico), Бай Лин (Ria), Клифтон Коллинз мл. (El Huron)
Дублёры: Владимир Зайцев (Chev Chelios), Полина Щербакова (Eve), Владимир Герасимов (Doc Miles), Илья Бледный (Venus), Михаил Георгиу (Don Kim), Андрей Бархударов, Пётр Иващенко (Chico), Рамиля Искандер (Ria), Василий Дахненко (El Huron), Борис Быстров (Poon Dong), Вероника Саркисова, Александр Коврижных (Randy)
Описание: Он умер, но обещал вернуться! Не чудом, а благодаря современным медицинским технологиям Чев Челиос получает новое сердце и новый шанс отомстить своим врагам. Теперь для постоянной подзарядки ему требуется электрический разряд мощностью не меньше, чем у автомобильного аккумулятора.
Изображение
Изображение
MPAA: R - Лицам до 17 лет обязательно присутствие взрослого
Качество: BDRip 720p
Формат: MKV
Видео: AVC, 1280x688 (1.860), 2883 kbps, 23,976 fps, 0,137 bpp
Аудио: Русский / AC3 / 5.1 / 48 kHz / 384 kbps / 16 bit
Скриншоты
ИзображениеИзображениеИзображение
Свернуть
"Media Info"
General
Unique ID : 226213191849779958601073617938667073030 (0xAA2F1374BA948DC191EE4FA932DCEE06)
Complete name : D:\Crank.Dilogy.2006-2009.BDRip 720p.DUB\Crank.2.High.Voltage.2009.x264.BDRip.720p.DUB.mkv
Format : Matroska
Format version : Version 2
File size : 2.19 GiB
Duration : 1h 35mn
Overall bit rate : 3 267 Kbps
Encoded date : UTC 2012-09-28 11:18:17
Writing application : mkvmerge v5.5.0 ('Healer') built on Apr 6 2012 21:43:24
Writing library : libebml v1.2.3 + libmatroska v1.3.0

Video
ID : 1
Format : AVC
Format/Info : Advanced Video Codec
Format profile : High@L3.1
Format settings, CABAC : Yes
Format settings, ReFrames : 4 frames
Codec ID : V_MPEG4/ISO/AVC
Duration : 1h 35mn
Bit rate : 2 883 Kbps
Width : 1 280 pixels
Height : 688 pixels
Display aspect ratio : 1.860
Frame rate : 23.976 fps
Color space : YUV
Chroma subsampling : 4:2:0
Bit depth : 8 bits
Scan type : Progressive
Bits/(Pixel*Frame) : 0.137
Stream size : 1.89 GiB (86%)
Title : Адреналин 2: Высокое напряжение
Writing library : x264 core 128 r2216 198a7ea
Encoding settings : cabac=1 / ref=3 / deblock=1:0:0 / analyse=0x3:0x133 / me=hex / subme=7 / psy=1 / psy_rd=1.00:0.00 / mixed_ref=1 / me_range=16 / chroma_me=1 / trellis=1 / 8x8dct=1 / cqm=0 / deadzone=21,11 / fast_pskip=1 / chroma_qp_offset=-2 / threads=12 / lookahead_threads=2 / sliced_threads=0 / nr=0 / decimate=1 / interlaced=0 / bluray_compat=0 / constrained_intra=0 / bframes=3 / b_pyramid=2 / b_adapt=1 / b_bias=0 / direct=1 / weightb=1 / open_gop=0 / weightp=2 / keyint=240 / keyint_min=23 / scenecut=40 / intra_refresh=0 / rc_lookahead=40 / rc=2pass / mbtree=1 / bitrate=2883 / ratetol=1.0 / qcomp=0.60 / qpmin=0 / qpmax=69 / qpstep=4 / cplxblur=20.0 / qblur=0.5 / ip_ratio=1.40 / aq=1:1.00
Language : English
Default : Yes
Forced : No

Audio
ID : 2
Format : AC-3
Format/Info : Audio Coding 3
Mode extension : CM (complete main)
Codec ID : A_AC3
Duration : 1h 35mn
Bit rate mode : Constant
Bit rate : 384 Kbps
Channel(s) : 6 channels
Channel positions : Front: L C R, Side: L R, LFE
Sampling rate : 48.0 KHz
Bit depth : 16 bits
Compression mode : Lossy
Stream size : 263 MiB (12%)
Title : Профессиональный (полное дублирование)
Language : Russian
Default : Yes
Forced : No
Свернуть
Свернуть
_________________
Изображение Изображение Изображение


Тема поднималась пользователем bazanoff 2014-12-20 17:22.
Не в сети
Профиль  
Начать новую темуОтветить на тему  [ 1 сообщение ] 
Вы не можете начинать темы
Вы не можете отвечать на сообщения
Вы не можете редактировать свои сообщения
Вы не можете удалять свои сообщения