Правила форума

  • В этом разделе создание новых тем Запрещено.
  • Для создания новых тем пользуйтесь Корневым разделом DVD и HD фильмы.
Начать новую темуОтветить на тему  [ Сообщений: 2 ] 
Торрент файл
Размер: 4.37 GB • Зарегистрирован: 4 года 1 месяц • Статус: Проверено
Скачан: 34 раза • Желающих скачать: 0 • Поблагодарили: 10 раз
 Раздают: 1  |  0 KB/s  ]   Качают: 0  |  0 KB/s  ] 
Сообщения
 Добавлено: 2012-10-22 22:42
Аватара пользователя
Стаж: 7 лет 8 месяцев
Сообщений: 10
Спасибок: 86
Адский бункер: Черное Солнце / Outpost: Black Sun

Изображение


Год выпуска: 2012
Страна: Великобритания
Слоган: «Война в аду»
Жанр: ужасы, боевик
Продолжительность: 01:41:10
Перевод: Профессиональный (многоголосый закадровый)

Режиссёр: Стив Баркер
Сценарист: Стив Баркер, Рэй Брантон
Продюсер: Арабелла Пейдж Крофт, Киран Паркер, Джэми Кармайкл
Оператор: Дэрран Тирнан
Композитор: Тео Грин
В ролях: Катрин Стэдмен, Ричард Койл, Али Крэйг, Ник Неверн, Даниэль Кальтаджироне, Гари МакДональд, Джон П. Арнольд, Филип Бэррэтт, Мартин Белл, Пол Бирчард, Элис Да Кунья, Картер Фергюсон, Адам Харкин, Жак Керр, Джеймс МакКриди, Гарет Моррисон, Джеймс Дж. О’Хара, Филлип Рош, Клайв Расселл, Вивьен Тейлор, Доминик Уоттерс
Описание: Научные разработки, которые велись немцами во время Второй мировой войны, по созданию бессмертных солдат не прошли даром. Уже в наши дни бойцы НАТО сталкиваются с батальоном зомби-солдат нацистской Германии из числа штурмовиков. Противостоять восставшим мертвецам практически невозможно, но еще более сложная задача стоит перед героями фильма — найти и уничтожить источник воскрешающей армии, грозящей миру Четвёртым Рейхом…
Рейтинг MPAA: 18+
Мировая премьера: 27 апреля 2012
Премьера в России: 2 августа 2012
Бюджет: $3 000 000
Изображение

Качество: BDRip [1080p]
Формат: AVC
Видео кодек: V_MPEG4/ISO/AVC
Аудио кодек: AC3 (Dolby Digital)
Видео: 1920x800, 5796 Кбит/сек, 23,976 кадр/сек, AVC, x264, 2,40:1, 0.157 Бит/[Пиксели*Кадры], 2pass
Аудио #1: AC-3, 384 Кбит/сек, 6 канала(ов), 48,0 КГц [Профессиональный (многоголосый закадровый)]
Скриншоты
Изображение
Изображение
Изображение
Свернуть

Cкрытый текст
Уникальный идентификатор : 196473898680505359247688437507450550208 (0x93CF7F190BE5EB3C81493A0F068137C0)
Полное имя : D:\VIDEO\Outpost.Black.Sun.2012.x264.BDRip.1080p.MVO.mkv
Формат : Matroska
Версия формата : Version 2
Размер файла : 4,37 Гбайт
Продолжительность : 1 ч. 41 м.
Общий поток : 6181 Кбит/сек
Дата кодирования : UTC 2012-10-21 11:32:01
Программа кодирования : mkvmerge v5.5.0 ('Healer') built on Apr 6 2012 21:43:24
Библиотека кодирования : libebml v1.2.3 + libmatroska v1.3.0

Видео
Идентификатор : 1
Формат : AVC
Формат/Информация : Advanced Video Codec
Профиль формата : High@L4.0
Параметр CABAC формата : Да
Параметр ReFrames формата : 4 кадра
Идентификатор кодека : V_MPEG4/ISO/AVC
Продолжительность : 1 ч. 41 м.
Битрейт : 5796 Кбит/сек
Ширина : 1920 пикселей
Высота : 800 пикселей
Соотношение сторон : 2,40:1
Режим частоты кадров : Постоянный
Частота кадров : 23,976 кадра/сек
Цветовое пространство : YUV
Субдискретизация насыщенности : 4:2:0
Битовая глубина : 8 бит
Тип развёртки : Прогрессивная
Бит/(Пиксели*Кадры) : 0.157
Размер потока : 4,01 Гбайт (92%)
Заголовок : Адский бункер: Черное Солнце
Библиотека кодирования : x264 core 128 r2216 198a7ea
Настройки программы : cabac=1 / ref=4 / deblock=1:0:0 / analyse=0x3:0x133 / me=hex / subme=7 / psy=1 / psy_rd=1.00:0.00 / mixed_ref=1 / me_range=16 / chroma_me=1 / trellis=1 / 8x8dct=1 / cqm=0 / deadzone=21,11 / fast_pskip=1 / chroma_qp_offset=-2 / threads=12 / lookahead_threads=2 / sliced_threads=0 / nr=0 / decimate=1 / interlaced=0 / bluray_compat=0 / constrained_intra=0 / bframes=3 / b_pyramid=2 / b_adapt=1 / b_bias=0 / direct=1 / weightb=1 / open_gop=0 / weightp=2 / keyint=240 / keyint_min=23 / scenecut=40 / intra_refresh=0 / rc_lookahead=40 / rc=2pass / mbtree=1 / bitrate=5796 / ratetol=1.0 / qcomp=0.60 / qpmin=10 / qpmax=51 / qpstep=4 / cplxblur=20.0 / qblur=0.5 / ip_ratio=1.40 / aq=1:1.00
Язык : English
Default : Да
Forced : Нет

Аудио
Идентификатор : 2
Формат : AC-3
Формат/Информация : Audio Coding 3
Расширение режима : CM (complete main)
Параметр Endianness формата : Big
Идентификатор кодека : A_AC3
Продолжительность : 1 ч. 41 м.
Вид битрейта : Постоянный
Битрейт : 384 Кбит/сек
Каналы : 6 каналов
Расположение каналов : Front: L C R, Side: L R, LFE
Частота : 48,0 КГц
Битовая глубина : 16 бит
Метод сжатия : С потерями
Размер потока : 278 Мбайт (6%)
Заголовок : Многоголосый закадровый, R5
Язык : Russian
Default : Да
Forced : Нет
Свернуть


Последний раз редактировалось ksher 2012-10-23 17:24, всего редактировалось 2 раз(а).
Не в сети
Профиль  
 Добавлено: 2012-10-23 09:59 (спустя 11 часов)
Руководитель релиз-группы
Аватара пользователя
Стаж: 7 лет 5 месяцев
Возраст: 31
Сообщений: 3407
Спасибок: 46729
Лайков: 5
ksher
Для DVD и HD-разделов необходимы развернутые технические данные:
Для HD: Отчет BDInfo→ (после нажатия кнопки «scan bitrates» и окончания сканирования) или MediaInfo→ ( весь текст из режима view (вид) → text (текст).) (под спойлером)
Не в сети
Профиль  
Начать новую темуОтветить на тему  [ Сообщений: 2 ] 
Вы не можете начинать темы
Вы не можете отвечать на сообщения
Вы не можете редактировать свои сообщения
Вы не можете удалять свои сообщения