Правила форума

  • В этом разделе создание новых тем Запрещено.
  • Для создания новых тем пользуйтесь Корневым разделом DVD и HD фильмы.
Начать новую темуОтветить на тему  [ Сообщений: 4 ] 
Торрент файл
Размер: 8.21 GB • Зарегистрирован: 5 лет 8 месяцев • Статус: Проверено
Скачан: 99 раз • Желающих скачать: 0 • Поблагодарили: 17 раз
 Раздают: 0  |  0 KB/s  ]   Качают: 0  |  0 KB/s  ] 
 Полного источника не было 3 года 2 месяца 
Сообщения
 Добавлено: 2011-03-06 10:03
Top-releaser
Аватара пользователя
Стаж: 6 лет 11 месяцев
Возраст: 45
Сообщений: 299
Спасибок: 4106
Лайков: 3
Адский эндшпиль / Rogues Gallery
«Two rival teams of assassins. One killer day at the office.»

Изображение

Год выпуска: 2010
Страна: США
Жанр: боевик, комедия
Продолжительность: 01:22:08
Перевод: Профессиональный (многоголосый) [лицензия]

Режиссер: Fouad Mikati
Сценарий: Брайан Ватанабе / Brian Watanabe
Продюсер: Шон МакКиттрик / Sean McKittrick, Майкл Оуховен / Michael Ohoven, Джефф Абберли / Jeff Abberley, Ричард Келли / Richard Kelly, Джим Сейбл / Jim Seibel
Оператор: Арно Стефани / Arnaud Stefani
Композитор: Йен Хонимэн / Ian Honeyman

В ролях: Джо Андерсон (Fool), Роб Кордри (Chariot), Эллен Баркин (Empress), Одетт Юстман (Temperance), Мэгги Кью (High Priestess), Зак Галифианакис (Hermit), Адам Скотт (Magician), Брэндон Т. Джексон (Tower), Эмили де Рэйвин (Hierophant), Бет Грант (Susan), Боб Оденкирк (Emperor), Майкл Хичкок (Neil)
Описание: После того, как супер босс был убит, в сверхсекретной подземной лаборатории начинается бойня между двумя командами правительственных агентов. Новичок среди агентов Фул должен найти убийцу до того, как лабораторию сотрут в порошок.

Изображение
Мировая премьера: 5 ноября 2009
Релиз на DVD: 10 марта 2011, «Columbia/Sony»
Изображение

MPAA: Изображение - Лицам до 17 лет обязательно присутствие взрослого
Качество: BDRip, 1080p
Формат: Matroska
Видео: AVC; 1920x804 (2.35:1); 12072 Kbps; 23,976 fps; 0,326 bpp
Аудио №1: Russian; AC3; 48 KHz; 448 Kbps; CBR; 6 ch; Профессиональный (многоголосый) [лицензия]
Аудио №2: Engish; DTS; 48 KHz; 1509 Kbps; CBR; 6 ch; 24 bit
Субтитры: English

Раздача группы:Изображение

"MediaInfo"

Общее
Уникальный идентификатор : 171614255914270741771834490222168323661 (0x811BB4144F4E864E84618353F22D364D)
Полное имя : Адский эндшпиль (Operation Endgame) [201, BDRip, 1080p].mkv
Формат : Matroska
Размер файла : 8,21 Гбайт
Продолжительность : 1 ч. 22 м.
Общий поток : 14,3 Мбит/сек
Дата кодирования : UTC 2011-03-05 15:46:37
Программа кодирования : mkvmerge v4.4.0 ('Die Wiederkehr') сборка от Oct 31 2010 21:52:48
Библиотека кодирования : libebml v1.0.0 + libmatroska v1.0.0

Видео
Идентификатор : 1
Формат : AVC
Формат/Информация : Advanced Video Codec
Профиль формата : High@L4.1
Параметр CABAC формата : Да
Параметр ReFrames формата : 5 кадры
Идентификатор кодека : V_MPEG4/ISO/AVC
Продолжительность : 1 ч. 22 м.
Битрейт : 12,4 Мбит/сек
Ширина : 1920 пикс.
Высота : 804 пикс.
Соотношение сторон : 2,35:1
Частота кадров : 23,976 кадр/сек
Цветовое пространство : YUV
Подвыборка цветности : 4:2:0
Битовая глубина : 8 бит
Тип развёртки : Прогрессивная
Бит/(Пиксели*Кадры) : 0.334
Размер потока : 6,93 Гбайт (84%)
Библиотека кодирования : x264 core 104 r1680 1a6fd47
Настройки программы : cabac=1 / ref=5 / deblock=1:-3:-3 / analyse=0x3:0x113 / me=umh / subme=9 / psy=1 / psy_rd=1.00:0.00 / mixed_ref=1 / me_range=32 / chroma_me=1 / trellis=2 / 8x8dct=1 / cqm=0 / deadzone=21,11 / fast_pskip=0 / chroma_qp_offset=-4 / threads=12 / sliced_threads=0 / nr=0 / decimate=0 / interlaced=0 / constrained_intra=0 / bframes=5 / b_pyramid=2 / b_adapt=2 / b_bias=0 / direct=3 / weightb=1 / open_gop=0 / weightp=2 / keyint=250 / keyint_min=23 / scenecut=40 / intra_refresh=0 / rc_lookahead=50 / rc=2pass / mbtree=1 / bitrate=12358 / ratetol=1.0 / qcomp=0.60 / qpmin=10 / qpmax=51 / qpstep=4 / cplxblur=20.0 / qblur=0.5 / ip_ratio=1.40 / aq=1:0.80
Язык : English

Аудио #1
Идентификатор : 2
Формат : AC-3
Формат/Информация : Audio Coding 3
Расширение режима : CM (complete main)
Идентификатор кодека : A_AC3
Продолжительность : 1 ч. 22 м.
Вид битрейта : Постоянный
Битрейт : 448 Кбит/сек
Канал(ы) : 6 канала(ов)
Расположение каналов : Front: L C R, Side: L R, LFE
Частота : 48,0 КГц
Битовая глубина : 16 бит
Метод сжатия : С потерями
Размер потока : 263 Мбайт (3%)
Язык : Russian

Аудио #2
Идентификатор : 3
Формат : DTS
Формат/Информация : Digital Theater Systems
Идентификатор кодека : A_DTS
Продолжительность : 1 ч. 22 м.
Вид битрейта : Постоянный
Битрейт : 1510 Кбит/сек
Канал(ы) : 6 канала(ов)
Расположение каналов : Front: L C R, Side: L R, LFE
Частота : 48,0 КГц
Битовая глубина : 24 бит
Метод сжатия : С потерями
Размер потока : 887 Мбайт (11%)
Язык : English

Текст
Идентификатор : 4
Формат : UTF-8
Идентификатор кодека : S_TEXT/UTF8
Идентификатор кодека/Информация : UTF-8 Plain Text
Язык : English
Свернуть
Изображение
"Скриншоты"

Изображение
Изображение
Изображение
Изображение
Изображение
Изображение
Изображение
Изображение
Изображение
Свернуть
Не в сети
Профиль  
 Добавлено: 2011-03-06 12:15 (спустя 2 часа 11 минут)
Аватара пользователя
Стаж: 7 лет
Сообщений: 183
Проверте штоли???
_________________
Юзербары
Изображение
Изображение
Изображение
Изображение
Свернуть
Не в сети
Профиль  
 Добавлено: 2011-03-07 21:09 (спустя 1 день 8 часов)
Top-seeder
Аватара пользователя
Стаж: 8 лет 1 месяц
Возраст: 31
Сообщений: 583
Спасибок: 2
Лайков: 146
Фильм так себе,посмотреть-удалить.
как всегда американские заговоры :bra_vo:
Не в сети
Профиль  
 Добавлено: 2011-06-10 10:33 (спустя 3 месяца 2 дня)
Аватара пользователя
Стаж: 8 лет 1 месяц
Возраст: 32
Сообщений: 496
Спасибок: 737
Райздайте плз!
2-ой день качаю, 68% :(
Не в сети
Профиль  
Начать новую темуОтветить на тему  [ Сообщений: 4 ] 
Вы не можете начинать темы
Вы не можете отвечать на сообщения
Вы не можете редактировать свои сообщения
Вы не можете удалять свои сообщения