Правила форума

  • В этом разделе создание новых тем Запрещено.
  • Для создания новых тем пользуйтесь Корневым разделом DVD и HD фильмы.
Начать новую темуОтветить на тему  [ Сообщений: 5 ] 
Торрент файл
Размер: 10.02 GB • Зарегистрирован: 5 лет 10 месяцев • Статус: Проверено
Скачан: 97 раз • Желающих скачать: 0 • Поблагодарили: 20 раз
 Раздают: 0  |  0 KB/s  ]   Качают: 0  |  0 KB/s  ] 
 Полного источника не было 1 год 6 месяцев 
Сообщения
 Добавлено: 2011-01-22 19:22
Аватара пользователя
Стаж: 8 лет
Возраст: 30
Сообщений: 846
Спасибок: 982
Лайков: 1
Адвокат Дьявола / The Devil`s Advocate

Изображение

Год выпуска: 1997
Страна: USA
Жанр: драма, мистика, триллер
Продолжительность: 02:23:49
Перевод: Профессиональный (полное дублирование)

Режиссер: Тейлор Хекфорд /Taylor Hackford/

В ролях: Киану Ривз, Аль Пачино, Шарлиз Терон, Джеффри Джонс, Джудит Айви, Конни Нилсен, Крэйг Т. Нельсон, Тамара Тюни, Рубен Сантьяго-Хадсон, Дебра Монк

Описание: В Нью-Йорк по приглашению главы крупного юридического концерна прибывает Кевин Ломакс, молодой адвокат. До этого он был известен тем, что защищал исключительно негодяев и притом не проиграл ни одного процесса. На новом месте работы он вполне счастлив, он живет в роскошной квартире с любящей женой, его окружают интересные люди. Но вскоре ситуация неуловимо меняется, происходят странные и зловещие события: внезапно погибает один из его коллег, затем кончает самоубийством его жена. Кевин, догадываясь, в чем тут дело, приходит к шефу концерна Джону Милтону... Последний же имеет еще и другое имя - он сам Сатана, и он намерен объяснить молодому человеку, зачем его пригласили в Нью-Йорк...

Качество: HDTV
Видео кодек: MPEG2
Аудио кодек: AC3
Видео: 1920x1080, 14 Мбит/сек, 29.970 кадр/сек
Аудио #0:
Кодек : AC3
Длительность : 2ч 23мин
Битрейт : 384 Кбит/сек
Режим расчёта битрей : CBR
Канал(ы) : 6 каналы
Частота : 48 КГц
ChannelPositions : Front: L C R, Rear: L R, Subwoofer
Язык : русский ДУБЛЯЖ

Аудио #1:
Кодек : AC3
Длительность : 2ч 23мин
Битрейт : 384 Кбит/сек
Режим расчёта битрей : CBR
Канал(ы) : 6 каналы
Частота : 48 КГц
ChannelPositions : Front: L C R, Rear: L R, Subwoofer
Язык : английский
MediaInfo
Общее
Идентификатор : 0 (0x0)
Полное имя : F:\Адвокат дьявола 1080p.ts
Формат : MPEG-TS
Размер файла : 10,0 Гбайт
Продолжительность : 2 ч. 23 м.
Общий поток : 9967 Кбит/сек

Видео
Идентификатор : 17 (0x11)
Идентификатор меню : 1 (0x1)
Формат : MPEG Video
Версия формата : Version 2
Профиль формата : Main@High
Параметр BVOP формата : Да
Параметр матрицы формата : По умолчанию
Идентификатор кодека : 2
Продолжительность : 2 ч. 23 м.
Вид битрейта : Переменный
Битрейт : 8699 Кбит/сек
Номинальный битрейт : 14,0 Мбит/сек
Ширина : 1920 пикс.
Высота : 1080 пикс.
Соотношение сторон : 16:9
Частота кадров : 29,970 кадр/сек
Стандарт вещания : Component
Цветовое пространство : YUV
Подвыборка цветности : 4:2:0
Битовая глубина : 8 бит
Метод сжатия : С потерями
Бит/(Пиксели*Кадры) : 0.140
Размер потока : 8,74 Гбайт (87%)

Аудио #1
Идентификатор : 20 (0x14)
Идентификатор меню : 1 (0x1)
Формат : AC-3
Формат/Информация : Audio Coding 3
Расширение режима : CM (complete main)
Идентификатор кодека : 129
Продолжительность : 2 ч. 23 м.
Вид битрейта : Постоянный
Битрейт : 384 Кбит/сек
Канал(ы) : 6 канала(ов)
Расположение каналов : Front: L C R, Side: L R, LFE
Частота : 48,0 КГц
Битовая глубина : 16 бит
Метод сжатия : С потерями
Размер потока : 395 Мбайт (4%)

Аудио #2
Идентификатор : 21 (0x15)
Идентификатор меню : 1 (0x1)
Формат : AC-3
Формат/Информация : Audio Coding 3
Расширение режима : CM (complete main)
Идентификатор кодека : 129
Продолжительность : 2 ч. 23 м.
Вид битрейта : Постоянный
Битрейт : 384 Кбит/сек
Канал(ы) : 6 канала(ов)
Расположение каналов : Front: L C R, Side: L R, LFE
Частота : 48,0 КГц
Битовая глубина : 16 бит
Метод сжатия : С потерями
Размер потока : 395 Мбайт (4%)

Текст #1
Идентификатор : 17 (0x11)608-1
Идентификатор меню : 1 (0x1)
Формат : EIA-608
Режим смешивания : A/53 / DTVCC Transport
Режим смешивания, доп. информация : Muxed in Video #1
Продолжительность : 2 ч. 23 м.
Размер потока : 0,00 байт (0%)

Текст #2
Идентификатор : 17 (0x11)1
Идентификатор меню : 1 (0x1)
Формат : EIA-708
Режим смешивания : A/53 / DTVCC Transport
Режим смешивания, доп. информация : Muxed in Video #1
Продолжительность : 2 ч. 23 м.
Размер потока : 0,00 байт (0%)

Свернуть
Скриншоты
Изображение
Изображение
Изображение
Изображение
Свернуть
_________________
Я в контакте !


Последний раз редактировалось gecsogen 2011-01-26 18:37, всего редактировалось 1 раз.
Не в сети
Профиль  
 Добавлено: 2011-01-25 00:13 (спустя 2 дня 4 часа)
Аватара пользователя
Стаж: 8 лет 3 месяца
Возраст: 43
Сообщений: 3290
Спасибок: 21012
Лайков: 3
gecsogen
добавьте пожалуйста еще пару скринов. Их должно быть от 3х шт. :)
_________________
Изображение
Не в сети
Профиль  
 Добавлено: 2011-02-06 00:27 (спустя 12 дней)
Аватара пользователя
Стаж: 6 лет
Сообщений: 17
Скорость всего 1,9 :( , этак год качаться будет
Не в сети
Профиль  
 Добавлено: 2012-03-25 09:46 (спустя 1 год 1 месяц)
Аватара пользователя
Стаж: 7 лет 11 месяцев
Сообщений: 37
Спасибок: 23
видео 1920 х 800 остальное черные полосы
Не в сети
Профиль  
 Добавлено: 2012-03-30 13:50 (спустя 5 дней)
Аватара пользователя
Стаж: 8 лет
Возраст: 30
Сообщений: 846
Спасибок: 982
Лайков: 1
dedMazai
очень позноватально, спасибо за офигенно нужную информацию.
_________________
Я в контакте !
Не в сети
Профиль  
Начать новую темуОтветить на тему  [ Сообщений: 5 ] 
Вы не можете начинать темы
Вы не можете отвечать на сообщения
Вы не можете редактировать свои сообщения
Вы не можете удалять свои сообщения