Правила форума

  • В этом разделе создание новых тем Запрещено.
  • Для создания новых тем пользуйтесь Корневым разделом DVD и HD фильмы.
Начать новую темуОтветить на тему  [ Сообщений: 6 ] 
Торрент файл
Размер: 13.5 GB • Зарегистрирован: 2 года 8 месяцев • Статус: Проверено
Скачан: 361 раз • Желающих скачать: 0 • Поблагодарили: 112 раз
 Раздают: 2  |  20 KB/s  ]   Качают: 0  |  0 KB/s  ] 
Сообщения
 Добавлено: 2014-03-19 14:53
DVD Release Group
Аватара пользователя
Стаж: 7 лет 1 месяц
Сообщений: 3546
Спасибок: 246974
Лайков: 1018
Афера по-американски

American Hustle


Изображение


Год выпуска: 2013
Страна: США
Жанр: Драма, комедия
Продолжительность: 02:18:04
Перевод: Профессиональный (полное дублирование)
Субтитры: Русские, английские
Режиссер: Дэвид О. Расселл
В ролях: Кристиан Бэйл, Брэдли Купер, Эми Адамс, Джереми Реннер, Дженнифер Лоуренс, Луис С.К., Джек Хьюстон, Майкл Пенья, Ши Уигхэм, Алессандро Нивола
Описание: В основе сюжета фильма реальная спецоперация, проводимая в конце 70-х — начале 80-х ФБР под кодовым названием Abscam. Она изначально была нацелена на расследование торговли краденым товаром. ФБР собиралось внедрить в преступную среду своих агентов под видом посредников, скупающих краденые шедевры для богатых коллекционеров Ближнего Востока. Впоследствии операция превратилась в изобличение коррупции на разных уровнях.
Изображение Изображение
Качество: BDRip 1080p
Формат: MKV
Видео кодек: H.264
Аудио кодек: AC3, DTS
Видео: 1920x800 23.98fps 12Mбит/с
Аудио:
Audio Rus: AC3 48kHz 6ch 448kbps
Audio Eng: DTS 48kHz 6ch 1510kbps
"MediaInfo"
Формат : Matroska
Версия формата : Version 2
Размер файла : 13,5 Гбайт
Продолжительность : 2 ч. 18 м.
Общий поток : 14,0 Мбит/сек
Дата кодирования : UTC 2014-03-19 09:26:53
Программа кодирования : mkvmerge v6.7.0 ('Back to the Ground') 64bit built on Jan 8 2014 15:10:52
Библиотека кодирования : libebml v1.3.0 + libmatroska v1.4.1
Видео
Идентификатор : 1
Формат : AVC
Формат/Информация : Advanced Video Codec
Профиль формата : High@L4.1
Параметр CABAC формата : Да
Параметр ReFrames формата : 5 кадров
Идентификатор кодека : V_MPEG4/ISO/AVC
Продолжительность : 2 ч. 18 м.
Битрейт : 12,0 Мбит/сек
Ширина : 1920 пикселей
Высота : 800 пикселей
Соотношение сторон : 2,40:1
Режим частоты кадров : Постоянный
Частота кадров : 23,976 кадра/сек
Цветовое пространство : YUV
Субдискретизация насыщенности : 4:2:0
Битовая глубина : 8 бит
Тип развёртки : Прогрессивная
Бит/(Пиксели*Кадры) : 0.327
Размер потока : 11,3 Гбайт (84%)
Библиотека кодирования : x264 core 138 r2358 9e941d1
Настройки программы : cabac=1 / ref=5 / deblock=1:-3:-3 / analyse=0x3:0x113 / me=umh / subme=11 / psy=1 / psy_rd=1.05:0.10 / mixed_ref=1 / me_range=48 / chroma_me=1 / trellis=2 / 8x8dct=1 / cqm=0 / deadzone=21,11 / fast_pskip=0 / chroma_qp_offset=-2 / threads=18 / lookahead_threads=1 / sliced_threads=0 / nr=0 / decimate=1 / interlaced=0 / bluray_compat=0 / constrained_intra=0 / bframes=6 / b_pyramid=2 / b_adapt=2 / b_bias=0 / direct=3 / weightb=1 / open_gop=0 / weightp=2 / keyint=250 / keyint_min=23 / scenecut=40 / intra_refresh=0 / rc_lookahead=40 / rc=2pass / mbtree=0 / bitrate=12037 / ratetol=2.0 / qcomp=0.70 / qpmin=0 / qpmax=69 / qpstep=4 / cplxblur=20.0 / qblur=0.5 / vbv_maxrate=40000 / vbv_bufsize=30000 / nal_hrd=none / ip_ratio=1.40 / pb_ratio=1.30 / aq=2:1.00
Язык : English
Default : Да
Forced : Нет
Аудио #1
Идентификатор : 2
Формат : AC-3
Формат/Информация : Audio Coding 3
Расширение режима : CM (complete main)
Параметр Endianness формата : Big
Идентификатор кодека : A_AC3
Продолжительность : 2 ч. 18 м.
Вид битрейта : Постоянный
Битрейт : 448 Кбит/сек
Каналы : 6 каналов
Расположение каналов : Front: L C R, Side: L R, LFE
Частота : 48,0 КГц
Битовая глубина : 16 бит
Метод сжатия : С потерями
Размер потока : 442 Мбайт (3%)
Заголовок : R5
Язык : Russian
Default : Да
Forced : Нет
Аудио #2
Идентификатор : 3
Формат : DTS
Формат/Информация : Digital Theater Systems
Режим : 16
Параметр Endianness формата : Big
Идентификатор кодека : A_DTS
Продолжительность : 2 ч. 18 м.
Вид битрейта : Постоянный
Битрейт : 1509 Кбит/сек
Каналы : 6 каналов
Расположение каналов : Front: L C R, Side: L R, LFE
Частота : 48,0 КГц
Битовая глубина : 24 бит
Метод сжатия : С потерями
Размер потока : 1,46 Гбайт (11%)
Язык : English
Default : Нет
Forced : Нет
Текст #1
Идентификатор : 4
Формат : UTF-8
Идентификатор кодека : S_TEXT/UTF8
Идентификатор кодека/Информация : UTF-8 Plain Text
Язык : Russian
Default : Нет
Forced : Нет
Текст #2
Идентификатор : 5
Формат : UTF-8
Идентификатор кодека : S_TEXT/UTF8
Идентификатор кодека/Информация : UTF-8 Plain Text
Язык : English
Default : Нет
Forced : Нет
Меню
00:00:00.000 : en:00:00:00.000
00:07:12.641 : en:00:07:12.641
00:14:11.142 : en:00:14:11.142
00:24:08.822 : en:00:24:08.822
00:31:28.970 : en:00:31:28.970
00:39:16.104 : en:00:39:16.104
00:48:40.334 : en:00:48:40.334
00:57:01.001 : en:00:57:01.001
01:06:18.600 : en:01:06:18.600
01:15:30.943 : en:01:15:30.943
01:24:12.756 : en:01:24:12.756
01:33:09.793 : en:01:33:09.793
01:41:35.089 : en:01:41:35.089
01:51:45.824 : en:01:51:45.824
02:00:25.301 : en:02:00:25.301
02:09:50.992 : en:02:09:50.992
Свернуть

"Скриншоты"
Изображение
Изображение
Изображение
Изображение
Свернуть
 Sanek123 нравится это.
Не в сети
Профиль  
 Добавлено: 2014-03-19 17:22 (спустя 2 часа 29 минут)
Аватара пользователя
Стаж: 3 года 6 месяцев
Сообщений: 175
Спасибок: 4256
Лайков: 29
Спасибо за релиз, хороший фильм
Не в сети
Профиль  
 Добавлено: 2014-03-21 00:27 (спустя 1 день 7 часов)
Кинокомментатор
Аватара пользователя
Стаж: 9 лет 1 месяц
Сообщений: 1332
Лайков: 54
интересное кино, интересные актёры, интересный сюжет!) это конечно же стоит посмотреть!) не 12 лет рабства... но определённо ценный экспонат:-)
_________________
Я ВКонтакте
Не в сети
Профиль  
 Добавлено: 2014-03-21 06:58 (спустя 6 часов)
Стаж: 2 года 9 месяцев
Сообщений: 11
Причем здесь 12 лет рабства, сравни еще с элизиумом, операция ы, незнай с аватаром еще.
Не в сети
Профиль  
 Добавлено: 2014-03-22 12:22 (спустя 1 день 5 часов)
Аватара пользователя
Стаж: 8 лет 11 месяцев
Сообщений: 515
Спасибок: 39
Лайков: 49

sovf1:

Причем здесь 12 лет рабства, сравни еще с элизиумом, операция ы, незнай с аватаром еще.

А при том, что знаток (кинокритик) здесь сравнивает данный фильм основанный на реальных событиях с другим фильмом, 12 лет рабства, тоже кстати, основанный на реальных событиях. А вот при чем тут твои: выдуманная сказочка про элизиум, комедия Гайдая, где есть смысл, но где один ржачь и не капли правды, и тем более фантастический супермега боевик аватар где правды вообще 0%, ибо там куча нелюдей, вообще непонятно почему ты их приплёл. Походу ты по жизни обычная незнайка раз задаёшь профи тупые вопросы.
Не в сети
Профиль  
 Добавлено: 2014-04-08 11:05 (спустя 16 дней)
Стаж: 2 года 7 месяцев
Сообщений: 2
Кинцо очень понравилось, спасибо за релиз, стою на роздаче.
___________________
подробнее
Не в сети
Профиль  
Начать новую темуОтветить на тему  [ Сообщений: 6 ] 
Вы не можете начинать темы
Вы не можете отвечать на сообщения
Вы не можете редактировать свои сообщения
Вы не можете удалять свои сообщения