Правила форума

  • В этом разделе создание новых тем Запрещено.
  • Для создания новых тем пользуйтесь Корневым разделом DVD и HD фильмы.
Начать новую темуОтветить на тему  [ Сообщений: 2 ] 
Торрент файл
Размер: 5.56 GB • Зарегистрирован: 4 года 10 месяцев • Статус: Проверено
Скачан: 115 раз • Желающих скачать: 0 • Поблагодарили: 19 раз
 Раздают: 0  |  0 KB/s  ]   Качают: 0  |  0 KB/s  ] 
 Полного источника не было 3 года 2 месяца 
Сообщения
 Добавлено: 2012-01-20 10:18
Top-seeder
Аватара пользователя
Стаж: 9 лет
Сообщений: 1399
Спасибок: 28652
Лайков: 8
Агент Джонни Инглиш: Перезагрузка / Johnny English Reborn

Изображение


Перевод: Профессиональный (полное дублирование)
Субтитры: Отсутствуют
Формат: BDRip, MKV, H.264, DTS
Страна: США, Франция, Великобритания
Режиссер: Оливер Паркер
Жанр: боевик, комедия, приключения
Продолжительность: 01:41:21
Год выпуска: 2011

В ролях: Роуэн Эткинсон, Джиллиан Андерсон, Доминик Уэст, Розамунд Пайк, Дэниэл Калуя, Ричард Шифф, Бен Миллер, Стивен Кэмпбелл Мур, Кристина Чонг, Жозефин Де Ла Буме

Описание: Действие фильма разворачивается через 8 лет после событий предшествующего фильма и с тех пор карьера сэра Джонни Инглиша ухудшается. За 5 лет до начала фильма его направили с заданием в Мозамбик, но миссия пошла ужасно плохо. С тех пор он живёт в пещере в горах Тибета, прячась ото всех из-за стыда, сожалений и обвинений в провале миссии.
Фильм начинается, когда герой находится на крайне низком моральном уровне, пока ему не дают ещё один шанс. Британская разведка МИ-7 снова нуждается в нём и ей надо вернуть агента, чтобы тот сорвал заговор группы киллеров, планирующих убить китайского премьер-министра.


Видео: 1280x528p (16:9), 23.976 fps, MPEG4 Video (H264), High@L4.1 ~ 5566 кбит/с, 0.321 bit/pixel
Аудио#1: Русский 48 kHz, (DTS), 6ch, ~ 768 Кбит/сек [Профессиональный (полное дублирование)]
Аудио#2: Английский 48 kHz, (DTS), 6ch, ~ 1510 Кбит/сек [Оригинал]

MI
Общее
Уникальный идентификатор : 220294182628423400043208264037453943784 (0xA5BB1DC52BBFD0F5BB1DB23682BA53E8)
Полное имя : D:\Закачки\Агент Джонни Инглиш Перезагрузка.mkv
Формат : Matroska
Размер файла : 5,56 Гбайт
Продолжительность : 1 ч. 41 м.
Общий поток : 7847 Кбит/сек
Дата кодирования : UTC 2012-01-19 20:34:24
Программа кодирования : mkvmerge v5.2.0 ('I can't explain') built on Dec 18 2011 18:12:03
Библиотека кодирования : libebml v1.2.3 + libmatroska v1.3.0

Видео
Идентификатор : 1
Формат : AVC
Формат/Информация : Advanced Video Codec
Профиль формата : High@L4.1
Параметр CABAC формата : Да
Параметр ReFrames формата : 12 кадров
Идентификатор кодека : V_MPEG4/ISO/AVC
Продолжительность : 1 ч. 41 м.
Битрейт : 5566 Кбит/сек
Ширина : 1280 пикс.
Высота : 534 пикс.
Соотношение сторон : 2,35:1
Частота кадров : 23,976 кадр/сек
Цветовое пространство : YUV
Подвыборка цветности : 4:2:0
Битовая глубина : 8 бит
Тип развёртки : Прогрессивная
Бит/(Пиксели*Кадры) : 0.340
Размер потока : 3,84 Гбайт (69%)
Заголовок : Johnny.English.Reborn.2011.BluRay.720p.DTS.x264-CHD
Библиотека кодирования : x264 core 119 r2106 07efeb4
Настройки программы : cabac=1 / ref=12 / deblock=1:-3:-3 / analyse=0x3:0x113 / me=umh / subme=10 / psy=1 / psy_rd=1.10:0.15 / mixed_ref=1 / me_range=32 / chroma_me=1 / trellis=2 / 8x8dct=1 / cqm=2 / deadzone=21,11 / fast_pskip=0 / chroma_qp_offset=-2 / threads=12 / sliced_threads=0 / nr=0 / decimate=1 / interlaced=0 / bluray_compat=0 / constrained_intra=0 / bframes=6 / b_pyramid=2 / b_adapt=2 / b_bias=0 / direct=3 / weightb=1 / open_gop=0 / weightp=2 / keyint=250 / keyint_min=23 / scenecut=40 / intra_refresh=0 / rc_lookahead=60 / rc=2pass / mbtree=1 / bitrate=5566 / ratetol=1.0 / qcomp=0.60 / qpmin=1 / qpmax=63 / qpstep=4 / cplxblur=20.0 / qblur=0.5 / vbv_maxrate=40000 / vbv_bufsize=30000 / nal_hrd=none / ip_ratio=1.40 / aq=1:0.80
Язык : English

Аудио #1
Идентификатор : 2
Формат : DTS
Формат/Информация : Digital Theater Systems
Идентификатор кодека : A_DTS
Продолжительность : 1 ч. 41 м.
Вид битрейта : Постоянный
Битрейт : 755 Кбит/сек
Каналы : 6 каналов
Расположение каналов : Front: L C R, Side: L R, LFE
Частота : 48,0 КГц
Битовая глубина : 24 бит
Метод сжатия : С потерями
Размер потока : 547 Мбайт (10%)
Заголовок : Russian @ DTS 5.1 @ 768 kbps
Язык : Russian

Аудио #2
Идентификатор : 3
Формат : DTS
Формат/Информация : Digital Theater Systems
Идентификатор кодека : A_DTS
Продолжительность : 1 ч. 41 м.
Вид битрейта : Постоянный
Битрейт : 1510 Кбит/сек
Каналы : 6 каналов
Расположение каналов : Front: L C R, Side: L R, LFE
Частота : 48,0 КГц
Битовая глубина : 24 бит
Метод сжатия : С потерями
Размер потока : 1,07 Гбайт (19%)
Заголовок : dts 5.1 1536kbps
Язык : English

Свернуть

Скриншоты
ИзображениеИзображениеИзображениеИзображение
Свернуть
Не в сети
Профиль  
 Добавлено: 2012-01-20 17:38 (спустя 7 часов)
Стаж: 5 лет 6 месяцев
Сообщений: 1
4 скрин улыбнул!
Не в сети
Профиль  
Начать новую темуОтветить на тему  [ Сообщений: 2 ] 
Вы не можете начинать темы
Вы не можете отвечать на сообщения
Вы не можете редактировать свои сообщения
Вы не можете удалять свои сообщения