Правила форума

  • В этом разделе создание новых тем Запрещено.
  • Для создания новых тем пользуйтесь Корневым разделом DVD и HD фильмы.
Начать новую темуОтветить на тему  [ 1 сообщение ] 
Торрент файл
Размер: 7.22 GB • Зарегистрирован: 3 года 7 месяцев • Статус: Проверено
Скачан: 87 раз • Желающих скачать: 0 • Поблагодарили: 17 раз
 Раздают: 0  |  0 KB/s  ]   Качают: 0  |  0 KB/s  ] 
 Полного источника не было 27 дней 
Сообщения
 Добавлено: 2013-04-21 10:35
Руководитель релиз-группы
Аватара пользователя
Стаж: 7 лет 5 месяцев
Возраст: 31
Сообщений: 3406
Спасибок: 46729
Лайков: 5
Изображение

Агент под прикрытием
So Undercover


Год выпуска: 2012
Страна: США
Слоган: «Новое секретное оружие»
Жанр: боевик, комедия
Продолжительность: 01:33:38
Перевод: Профессиональный (полное дублирование) [лицензия]
Режиссер: Том Вон
Сценарий: Аллан Лоб, Стивен Перл
Продюсер: Тобин Армруст, Найджел Синклер, Тиш Сайрус, Гай Ист, Аллан Лоб
Оператор: Дени Ленуар
В ролях: Майли Сайрус, Джереми Пивен, Майк О’Мэлли, Джошуа Боуман, Лорен МакНайт, Келли Осборн, Элоиз Мамфорд, Меган Парк, Морган Кэлхун, Алексис Нэп, Мэттью Сеттл, Отем Ризер
Сборы в России: $373 583
Описание: Главная героиня - Молли - частный детектив, нанятый ФБР для расследования одного важного дела. Девушка отправляется в колледж, чтобы под прикрытием попасть в тайное женское общество.
Изображение
MPAA: Изображение
Мировая премьера: 6 декабря 2012
Раздача группы: Изображение
Качество: BDRip, 1080p
Формат: MKV
Видео: AVC; 1920x800 (2.40:1); 9159 Kbps; 23,976 fps; 0,249 bit/pixel
Аудио №1: AC3; 640 Kbps; CBR; 6 ch Russian
Аудио №2: AC3; 384 Kbps; CBR; 6 ch Ukrainian
Аудио №3: AC3; 640 Kbps; CBR; 6 ch English
Субтитры: русские, английские
mediainfo
Формат : Matroska
Версия формата : Version 2
Размер файла : 7,22 Гбайт
Продолжительность : 1 ч. 33 м.
Общий поток : 11,0 Мбит/сек
Дата кодирования : UTC 2013-04-19 15:17:40
Программа кодирования : mkvmerge v5.2.0 ('I can't explain') built on Dec 18 2011 18:12:03
Библиотека кодирования : libebml v1.2.3 + libmatroska v1.3.0

Видео
Идентификатор : 1
Формат : AVC
Формат/Информация : Advanced Video Codec
Профиль формата : High@L4.1
Параметр CABAC формата : Да
Параметр ReFrames формата : 5 кадров
Идентификатор кодека : V_MPEG4/ISO/AVC
Продолжительность : 1 ч. 33 м.
Битрейт : 9386 Кбит/сек
Ширина : 1920 пикселей
Высота : 800 пикселей
Соотношение сторон : 2,40:1
Частота кадров : 23,976 кадра/сек
Цветовое пространство : YUV
Субдискретизация насыщенности : 4:2:0
Битовая глубина : 8 бит
Тип развёртки : Прогрессивная
Бит/(Пиксели*Кадры) : 0.255
Размер потока : 5,99 Гбайт (83%)
Заголовок : So.Undercover.2012.1080p.BluRay.x264-DiSPOSABLE
Библиотека кодирования : x264 core 129 r2245 bc13772
Настройки программы : cabac=1 / ref=5 / deblock=1:0:0 / analyse=0x3:0x133 / me=umh / subme=7 / psy=1 / psy_rd=1.00:0.00 / mixed_ref=1 / me_range=16 / chroma_me=1 / trellis=1 / 8x8dct=1 / cqm=0 / deadzone=21,11 / fast_pskip=0 / chroma_qp_offset=-2 / threads=12 / lookahead_threads=2 / sliced_threads=0 / nr=0 / decimate=1 / interlaced=0 / bluray_compat=0 / constrained_intra=0 / bframes=3 / b_pyramid=2 / b_adapt=1 / b_bias=0 / direct=2 / weightb=0 / open_gop=0 / weightp=2 / keyint=240 / keyint_min=23 / scenecut=40 / intra_refresh=0 / rc_lookahead=40 / rc=2pass / mbtree=1 / bitrate=9386 / ratetol=1.0 / qcomp=0.60 / qpmin=10 / qpmax=51 / qpstep=4 / cplxblur=20.0 / qblur=0.5 / ip_ratio=1.40 / aq=1:1.00
Язык : English

Аудио #1
Идентификатор : 2
Формат : AC-3
Формат/Информация : Audio Coding 3
Расширение режима : CM (complete main)
Идентификатор кодека : A_AC3
Продолжительность : 1 ч. 33 м.
Вид битрейта : Постоянный
Битрейт : 640 Кбит/сек
Каналы : 6 каналов
Расположение каналов : Front: L C R, Side: L R, LFE
Частота : 48,0 КГц
Битовая глубина : 16 бит
Метод сжатия : С потерями
Размер потока : 429 Мбайт (6%)
Заголовок : DD 5.1 @ 640 kbps - Dub, R5
Язык : Russian

Аудио #2
Идентификатор : 3
Формат : AC-3
Формат/Информация : Audio Coding 3
Расширение режима : CM (complete main)
Идентификатор кодека : A_AC3
Продолжительность : 1 ч. 33 м.
Вид битрейта : Постоянный
Битрейт : 384 Кбит/сек
Каналы : 6 каналов
Расположение каналов : Front: L C R, Side: L R, LFE
Частота : 48,0 КГц
Битовая глубина : 16 бит
Метод сжатия : С потерями
Размер потока : 257 Мбайт (3%)
Заголовок : DD 5.1 @ 384 kbps - Dub, R5
Язык : Ukrainian

Аудио #3
Идентификатор : 4
Формат : AC-3
Формат/Информация : Audio Coding 3
Расширение режима : CM (complete main)
Идентификатор кодека : A_AC3
Продолжительность : 1 ч. 33 м.
Вид битрейта : Постоянный
Битрейт : 640 Кбит/сек
Каналы : 6 каналов
Расположение каналов : Front: L C R, Side: L R, LFE
Частота : 48,0 КГц
Битовая глубина : 16 бит
Метод сжатия : С потерями
Размер потока : 429 Мбайт (6%)
Заголовок : DD 5.1 640 kbps
Язык : English

Текст #1
Идентификатор : 5
Формат : UTF-8
Идентификатор кодека : S_TEXT/UTF8
Идентификатор кодека/Информация : UTF-8 Plain Text
Заголовок : R5
Язык : Russian

Текст #2
Идентификатор : 6
Формат : UTF-8
Идентификатор кодека : S_TEXT/UTF8
Идентификатор кодека/Информация : UTF-8 Plain Text
Язык : English

Меню
00:00:00.000 : en:00:00:00.000
00:05:33.208 : en:00:05:33.208
00:15:50.908 : en:00:15:50.908
00:23:04.383 : en:00:23:04.383
00:30:41.673 : en:00:30:41.673
00:38:10.997 : en:00:38:10.997
00:47:39.398 : en:00:47:39.398
00:53:14.900 : en:00:53:14.900
01:03:10.829 : en:01:03:10.829
01:14:29.090 : en:01:14:29.090
01:21:25.589 : en:01:21:25.589
01:29:05.298 : en:01:29:05.298

Свернуть
"Знаете ли Вы, что..."
  • Почти все сцены в фильме сняты в Новом Орлеане. За исключением сцен, съемки которых проходили в кампусе Калифорнийского университета в Лос-Анджелесе.
Свернуть
Скриншоты

Изображение

Изображение

Изображение

Изображение
Свернуть
Не в сети
Профиль  
Начать новую темуОтветить на тему  [ 1 сообщение ] 
Вы не можете начинать темы
Вы не можете отвечать на сообщения
Вы не можете редактировать свои сообщения
Вы не можете удалять свои сообщения