Правила форума

  • В этом разделе создание новых тем Запрещено.
  • Для создания новых тем пользуйтесь Корневым разделом DVD и HD фильмы.
Начать новую темуОтветить на тему  [ Сообщений: 7 ] 
Торрент файл
Размер: 7.96 GB • Зарегистрирован: 1 год 1 месяц • Статус: Проверено
Скачан: 1020 раз • Желающих скачать: 0 • Поблагодарили: 190 раз
 Раздают: 15  |  0 KB/s  ]   Качают: 0  |  0 KB/s  ] 
Сообщения
 Добавлено: 2015-11-07 12:11
DVD Release Group
Аватара пользователя
Стаж: 7 лет 1 месяц
Сообщений: 3559
Спасибок: 247386
Лайков: 1018
Агенты А.Н.К.Л.

The Man from U.N.C.L.E.


Изображение


Год выпуска: 2015
Страна: США
Жанр: Боевик, комедия, приключения
Продолжительность: 01:56:30
Перевод: Профессиональный (полное дублирование)
Субтитры: Русские на немецкую речь.
Режиссер: Гай Ричи
В ролях: Генри Кавилл, Арми Хаммер, Алисия Викандер, Элизабет Дебики, Хью Грант, Лука Кальвани, Сильвестр Грот, Джаред Харрис, Кристиан Беркель, Миша Кузнецов, Гай Уильямс, Марианна Ди Мартино, Джулиан Майкл Деустер, Андреа Каглиши, Риккардо Калваниз
Описание: Наполеон Соло — агент ЦРУ, на счету которого огромное количество успешно проведенных операций. Он считается одним из лучших секретных агентов во всем мире, и с ним может сравниться только один человек — самый молодой и перспективный агент КГБ, Илья Курякин. Их противостояние переросло в настоящую войну, в которой никто не собирается уступать. Однако обстоятельства складываются так, что непримиримые враги вынуждены стать напарниками. Это происходит после того как спецслужбы двух стран обнаруживают международную преступную организацию, которой удалось создать ядерную бомбу…
Изображение Изображение
Качество: BDRip 1080p
Формат: MKV
Видео кодек: H.264
Аудио кодек: AC3
Видео: 1920x800 23.98fps 8763kbps
Аудио:
Аудио Rus: 48kHz 6ch 384kbps
Аудио Eng: 48kHz 6ch 640kbps
"MediaInfo"
Формат : Matroska
Версия формата : Version 4 / Version 2
Размер файла : 7,96 Гбайт
Продолжительность : 1 ч. 56 м.
Общий поток : 9786 Кбит/сек
Дата кодирования : UTC 2015-11-06 18:27:57
Программа кодирования : mkvmerge v8.3.0 ('Over the Horizon') 64bit
Библиотека кодирования : libebml v1.3.1 + libmatroska v1.4.2
DURATION : 01:56:28.736000000
NUMBER_OF_FRAMES : 218398
NUMBER_OF_BYTES : 335459328
_STATISTICS_WRITING_APP : mkvmerge v8.3.0 ('Over the Horizon') 64bit
_STATISTICS_WRITING_DATE_UTC : 2015-11-06 18:27:57
_STATISTICS_TAGS : BPS DURATION NUMBER_OF_FRAMES NUMBER_OF_BYTES

Видео
Идентификатор : 1
Формат : AVC
Формат/Информация : Advanced Video Codec
Профиль формата : High@L4.1
Параметр CABAC формата : Да
Параметр ReFrames формата : 5 кадров
Идентификатор кодека : V_MPEG4/ISO/AVC
Продолжительность : 1 ч. 56 м.
Битрейт : 8763 Кбит/сек
Ширина : 1920 пикселей
Высота : 800 пикселей
Соотношение сторон : 2,40:1
Режим частоты кадров : Постоянный
Частота кадров : 23,976 кадра/сек
Цветовое пространство : YUV
Субдискретизация насыщенности : 4:2:0
Битовая глубина : 8 бит
Тип развёртки : Прогрессивная
Бит/(Пиксели*Кадры) : 0.238
Размер потока : 6,97 Гбайт (88%)
Библиотека кодирования : x264 core 148 r2638 7599210
Настройки программы : cabac=1 / ref=5 / deblock=1:0:0 / analyse=0x3:0x133 / me=umh / subme=7 / psy=1 / psy_rd=1.00:0.00 / mixed_ref=1 / me_range=16 / chroma_me=1 / trellis=1 / 8x8dct=1 / cqm=0 / deadzone=21,11 / fast_pskip=0 / chroma_qp_offset=-2 / threads=18 / lookahead_threads=3 / sliced_threads=0 / nr=0 / decimate=1 / interlaced=0 / bluray_compat=0 / constrained_intra=0 / bframes=3 / b_pyramid=2 / b_adapt=1 / b_bias=0 / direct=1 / weightb=1 / open_gop=0 / weightp=2 / keyint=250 / keyint_min=23 / scenecut=40 / intra_refresh=0 / rc_lookahead=40 / rc=2pass / mbtree=1 / bitrate=8763 / ratetol=1.0 / qcomp=0.60 / qpmin=0 / qpmax=69 / qpstep=4 / cplxblur=20.0 / qblur=0.5 / ip_ratio=1.40 / aq=1:1.00
Язык : English
Default : Да
Forced : Нет
DURATION : 01:56:29.661000000
NUMBER_OF_FRAMES : 167584
NUMBER_OF_BYTES : 7653579527
_STATISTICS_WRITING_APP : mkvmerge v8.3.0 ('Over the Horizon') 64bit
_STATISTICS_WRITING_DATE_UTC : 2015-11-06 18:27:57
_STATISTICS_TAGS : BPS DURATION NUMBER_OF_FRAMES NUMBER_OF_BYTES

Аудио #1
Идентификатор : 2
Формат : AC-3
Формат/Информация : Audio Coding 3
Расширение режима : CM (complete main)
Параметр Endianness формата : Big
Идентификатор кодека : A_AC3
Продолжительность : 1 ч. 56 м.
Вид битрейта : Постоянный
Битрейт : 384 Кбит/сек
Каналы : 6 каналов
Расположение каналов : Front: L C R, Side: L R, LFE
Частота : 48,0 КГц
Битовая глубина : 16 бит
Метод сжатия : С потерями
Размер потока : 320 Мбайт (4%)
Язык : Russian
Default : Да
Forced : Нет

Аудио #2
Идентификатор : 4
Формат : AC-3
Формат/Информация : Audio Coding 3
Расширение режима : CM (complete main)
Параметр Endianness формата : Big
Идентификатор кодека : A_AC3
Продолжительность : 1 ч. 56 м.
Вид битрейта : Постоянный
Битрейт : 640 Кбит/сек
Каналы : 6 каналов
Расположение каналов : Front: L C R, Side: L R, LFE
Частота : 48,0 КГц
Битовая глубина : 16 бит
Метод сжатия : С потерями
Размер потока : 533 Мбайт (7%)
Язык : English
Default : Нет
Forced : Нет

Текст
Идентификатор : 3
Формат : UTF-8
Идентификатор кодека : S_TEXT/UTF8
Идентификатор кодека/Информация : UTF-8 Plain Text
Заголовок : Forced
Язык : Russian
Default : Да
Forced : Нет

Меню
00:00:00.000 : en:00:00:00.000
00:15:19.085 : en:00:15:19.085
00:23:11.682 : en:00:23:11.682
00:32:09.302 : en:00:32:09.302
00:40:36.059 : en:00:40:36.059
00:49:07.570 : en:00:49:07.570
00:59:23.560 : en:00:59:23.560
01:08:52.837 : en:01:08:52.837
01:20:28.115 : en:01:20:28.115
01:29:47.674 : en:01:29:47.674
01:43:21.362 : en:01:43:21.362
01:49:23.432 : en:01:49:23.432
Свернуть

"Скриншоты"
Изображение
Изображение
Изображение
Свернуть
В сети
Профиль  
 Добавлено: 2015-11-07 13:13 (спустя 1 час 1 минута)
Top-seeder
Аватара пользователя
Стаж: 8 лет 8 месяцев
Возраст: 26
Сообщений: 665
Спасибок: 2687
Лайков: 2
мне чет вообще не понравился фильм, зря в айтюнсе купил(
Не в сети
Профиль  
 Добавлено: 2015-11-09 23:14 (спустя 2 дня 10 часов)
Кинокомментатор
Аватара пользователя
Стаж: 9 лет 1 месяц
Сообщений: 1332
Лайков: 54
Очень позитивно) пару раз даже посмеялся!) всё динамично и с хорошим саундтреком! в общем вполне достойное кино!) 8/10
Не в сети
Профиль  
 Добавлено: 2015-11-10 23:46 (спустя 1 день)
Аватара пользователя
Стаж: 7 лет 1 месяц
Сообщений: 326
Спасибок: 235
Лайков: 31
Гай Ричи держит планку, господа! Этим все сказано...
Не в сети
Профиль  
 Добавлено: 2015-11-12 22:49 (спустя 1 день 23 часа)
Аватара пользователя
Стаж: 8 лет 5 месяцев
Сообщений: 69
Лайков: 6
разучились снимать фильмы в 1.5 часа...что не кино, так 2 или больше(...на ночь нечего посмотреть
_________________
aatown.ru GPS навигаторы Garmin за 50%. И не только...
Не в сети
Профиль  
 Добавлено: 2016-01-29 17:44 (спустя 2 месяца 16 дней)
Стаж: 7 лет 3 месяца
Сообщений: 6
Лайков: 1
На тв Самсунг не идёт.
Не в сети
Профиль  
 Добавлено: 2016-07-03 17:48 (спустя 5 месяцев 5 дней)
Стаж: 5 лет 8 месяцев
Сообщений: 9
Раздают: [ 19 | 0 KB/s ] двое суток качаю. козий сайт. скачаю лучше с рутрекера
Не в сети
Профиль  
Начать новую темуОтветить на тему  [ Сообщений: 7 ] 
Вы не можете начинать темы
Вы не можете отвечать на сообщения
Вы не можете редактировать свои сообщения
Вы не можете удалять свои сообщения