Правила форума

  • В этом разделе создание новых тем Запрещено.
  • Для создания новых тем пользуйтесь Корневым разделом DVD и HD фильмы.
Начать новую темуОтветить на тему  [ Сообщений: 5 ] 
Торрент файл
Размер: 3.49 GB • Зарегистрирован: 3 года 3 месяца • Статус: Проверено
Скачан: 76 раз • Желающих скачать: 0 • Поблагодарили: 25 раз
 Раздают: 0  |  0 KB/s  ]   Качают: 0  |  0 KB/s  ] 
 Полного источника не было 10 месяцев 
Сообщения
 Добавлено: 2013-08-11 15:48
Руководитель релиз-группы
Аватара пользователя
Стаж: 7 лет 2 месяца
Возраст: 4
Сообщений: 5213
Спасибок: 19349
Лайков: 2312
Акулий торнадо / Sharknado

Изображение

Год выпуска: 2013
Страна: США. Sci-Fi
Жанр: триллер, драма, криминал, детектив
Продолжительность: 01:25:00
Перевод: Профессиональный многоголосый (BaibaKo)
Cубтитры: нет
Оригинальная аудиодорожка: английский


Режиссер: Энтони Ферранте / Anthony C. Ferrante
В ролях: Тара Рид, Йен Зиринг, Джон Хёрд, Кэсси Сербо, Джэйсон Симмонз, Алекс Арлио, Нил Х. Берков, Хезер Жослин Блэр, Сумико Браун, Дайан Чэмберс

Изображение

Описание: Из-за ужасного урагана Лос-Анджелес оказывается затопленным. Тысячи акул терроризируют городских жителей. Но когда на Лос-Анджелес обрушивается торнадо, ужасные морские хищники поднимаются в воздух…
Фильм «Акулий торнадо» (Sharknado) из разряда «настолько жуткий, что смешно» стал интернет-сенсацией. После показа по каналу SyFy в июле 2013 года социальные сети буквально взорвались от обсуждений. Картина собрала у экранов большую для кабельного канала аудиторию – 1,4 миллиона зрителей. А в августе из-за бешеной популярности в США этот телефильм запустили и в кинопрокат. Данные компании Fandango гласят, что билеты на сеансы распроданы. Кинотеатры решили организовать дополнительные показы. Сообщается, что уже началось производство второй серии нашумевшего проекта. Фильм будет представлен зрителям в следующем году. Из самых громких имен в фильме — Йен Зиринг (тот самый Стив из Беверли Хиллз 90210) и Тара Рид («Американский пирог»). Они советуют не воспринимать "Акулий торнадо" серьезно. Именно абсурдность сюжета и привлекла огромное внимание к этому одному из самых глупых фильмов года.

Изображение
Качество видео: HDTVRip (720p)
Формат: AVC
Видео кодек: Н 264
Аудио кодек: AC3
Видео: Н 264, 1280х720 (16:9), 23.976 fps, ~4968 kbps avg, 0.225 bit/pixel
Аудио 1: 48 kHz, AC3, 6 ch, ~384 kbps avg (русский)
Аудио 2: 48 kHz, AC3, 6 ch, ~384 kbps avg (английский )

МедиаИнфо
Уникальный идентификатор : 173819318624062865506029906734872643994 (0x82C462108E0A366FB746067E68C1C99A)
Полное имя : F:ФИЛЬМЫ ТОРРЕНТАSharknado.2013.HDTV720p.Rus.Eng.BaibaKo.mkv
Формат : Matroska
Версия формата : Version 4 / Version 2
Размер файла : 3,49 Гбайт
Продолжительность : 1 ч. 25 м.
Общий поток : 5853 Кбит/сек
Название фильма : BaibaKo.tv presents - Акулий торнадо
Дата кодирования : UTC 2013-08-11 03:21:51
Программа кодирования : mkvmerge v6.3.0 ('You can't stop me!') built on Jun 28 2013 20:09:41
Библиотека кодирования : libebml v1.3.0 + libmatroska v1.4.0

Видео
Идентификатор : 1
Формат : AVC
Формат/Информация : Advanced Video Codec
Профиль формата : High@L4.1
Параметр CABAC формата : Да
Параметр ReFrames формата : 9 кадров
Идентификатор кодека : V_MPEG4/ISO/AVC
Продолжительность : 1 ч. 25 м.
Битрейт : 4968 Кбит/сек
Ширина : 1280 пикселей
Высота : 720 пикселей
Соотношение сторон : 16:9
Частота кадров : 23,976 кадра/сек
Цветовое пространство : YUV
Субдискретизация насыщенности : 4:2:0
Битовая глубина : 8 бит
Тип развёртки : Прогрессивная
Бит/(Пиксели*Кадры) : 0.225
Размер потока : 2,96 Гбайт (85%)
Библиотека кодирования : x264 core 133 r2334 a3ac64b
Настройки программы : cabac=1 / ref=9 / deblock=1:-2:-1 / analyse=0x3:0x133 / me=umh / subme=9 / psy=1 / psy_rd=1.00:0.00 / mixed_ref=1 / me_range=48 / chroma_me=1 / trellis=2 / 8x8dct=1 / cqm=0 / deadzone=21,11 / fast_pskip=0 / chroma_qp_offset=-2 / threads=6 / lookahead_threads=1 / sliced_threads=0 / nr=0 / decimate=0 / interlaced=0 / bluray_compat=0 / constrained_intra=0 / bframes=6 / b_pyramid=2 / b_adapt=2 / b_bias=0 / direct=3 / weightb=1 / open_gop=0 / weightp=2 / keyint=240 / keyint_min=22 / scenecut=40 / intra_refresh=0 / rc_lookahead=150 / rc=crf / mbtree=1 / crf=18.0 / qcomp=0.60 / qpmin=10 / qpmax=51 / qpstep=4 / ip_ratio=1.40 / aq=1:0.75
Язык : English

Аудио #1
Идентификатор : 2
Формат : AC-3
Формат/Информация : Audio Coding 3
Расширение режима : CM (complete main)
Идентификатор кодека : A_AC3
Продолжительность : 1 ч. 25 м.
Вид битрейта : Постоянный
Битрейт : 384 Кбит/сек
Каналы : 6 каналов
Расположение каналов : Front: L C R, Side: L R, LFE
Частота : 48,0 КГц
Битовая глубина : 16 бит
Метод сжатия : С потерями
Размер потока : 235 Мбайт (7%)
Заголовок : Rus BaibaKo.tv DD5.1
Язык : Russian

Аудио #2
Идентификатор : 3
Формат : AC-3
Формат/Информация : Audio Coding 3
Расширение режима : CM (complete main)
Идентификатор кодека : A_AC3
Продолжительность : 1 ч. 25 м.
Вид битрейта : Постоянный
Битрейт : 384 Кбит/сек
Каналы : 6 каналов
Расположение каналов : Front: L C R, Side: L R, LFE
Частота : 48,0 КГц
Битовая глубина : 16 бит
Метод сжатия : С потерями
Задержка видео : 16 мс.
Размер потока : 235 Мбайт (7%)
Заголовок : Eng DD5.1
Язык : English
Свернуть

Скриншоты
Изображение
Изображение
Изображение

Свернуть
_________________
Изображение

Изображение


Последний раз редактировалось zima-letoru 2013-08-11 19:20, всего редактировалось 2 раз(а).
 di-ys1 и rotametr нравится это.
Не в сети
Профиль  
 Добавлено: 2013-08-11 18:52 (спустя 3 часа)
Модератор
Аватара пользователя
Стаж: 8 лет 11 месяцев
Сообщений: 516
Спасибок: 26888
Лайков: 1
Скрины поправьте
Не в сети
Профиль  
 Добавлено: 2013-08-13 22:07 (спустя 2 дня 3 часа)
Аватара пользователя
Стаж: 8 лет 7 месяцев
Сообщений: 1702
Спасибок: 104
Лайков: 152
;;-))) :ps_ih:
Не в сети
Профиль  
 Добавлено: 2013-08-18 18:11 (спустя 4 дня)
Аватара пользователя
Стаж: 8 лет 6 месяцев
Сообщений: 478
Спасибок: 365
Изображение
Не в сети
Профиль  
 Добавлено: 2013-08-19 08:22 (спустя 14 часов)
Аватара пользователя
Стаж: 8 лет 11 месяцев
Сообщений: 512
Спасибок: 39
Лайков: 49

маленький БУ:

Изображение

Не "ннадо?", а "ннннада?"
Не в сети
Профиль  
Начать новую темуОтветить на тему  [ Сообщений: 5 ] 
Вы не можете начинать темы
Вы не можете отвечать на сообщения
Вы не можете редактировать свои сообщения
Вы не можете удалять свои сообщения