Правила форума

  • В этом разделе создание новых тем Запрещено.
  • Для создания новых тем пользуйтесь Корневым разделом DVD и HD фильмы.
Начать новую темуОтветить на тему  [ 1 сообщение ] 
Торрент файл
Размер: 7.98 GB • Зарегистрирован: 2 года 10 месяцев • Статус: Проверено
Скачан: 4 раза • Желающих скачать: 0 • Поблагодарили: 2 раза
 Раздают: 0  |  0 KB/s  ]   Качают: 0  |  0 KB/s  ] 
 Полного источника не было 1 год 
Сообщения
 Добавлено: 2014-01-25 10:10
Аватара пользователя
Стаж: 3 года 6 месяцев
Сообщений: 175
Спасибок: 4258
Лайков: 29
Альцест на велосипеде / Alceste a bicyclette / Cycling with Moliere

Изображение


Год выпуска: 2013
Страна: Франция
Жанр: драма, комедия
Продолжительность: 01:45:16
Перевод: Авторский одноголосый (М.Чадов)
Субтитры: Russian [kkad], English

Режиссёр: Филипп Ле Гюэ
В ролях: Фабрис Лукини, Ламбер Вильсон, Майя Санса, Камий Жапи, Жед Марлон, Стефан Войтович, Aнни Мерсье, Кристин Мурийо, Лори Бордезуль, Жозиан Столеру
Описание: Серж Тано — популярный французский актер, уставший от всеобщего внимания и переехавший жить на небольшой островок Иль-де-Ре, на котором его дядя оставил ему в наследство большой дом. В течении трех лет он живет спокойной тихой жизнью, катаясь по окрестности на велосипеде и рисуя картины, пока к нему не приезжает его друг и бывший коллега Готье Велансе. Он готовит театральную постановку по известной пьесе Мольера «Мизантроп» и просто уверен, что никто не сыграет роль Альцеста лучше, чем Серж. Удастся ли ему уговорить друга вернуться на сцену, ведь тот уже привык к тихой спокойной жизни...
Доп.информация: Сохранены оригинальные чаптеры как на Blu-Ray
Изображение
Изображение

Качество: BDRip 1080p
Формат: MKV
Видео кодек: AVC
Аудио кодек: AC3 (Dolby Digital), DTS
Видео: 8891 kb/s, 1920x1040, 23,976 кадра/сек
Аудио #1: AC3, 448 kb/s (6 ch), 48,0 КГц
Аудио #2: French: DTS, 1510 kb/s (6 ch), 48,0 КГц
Изображение
Скриншоты
Изображение
Изображение
Изображение
Изображение
Свернуть

MI
General
Unique ID : 175049836929721313904078892448693748211 (0x83B15F4D1B527B528ED089B33F9A01F3)
Complete name : F:\ФИЛЬМЫ\Cycling.With.Moliere.2013.Blu.Ray.1080p.CINEMANIA.mkv
Format : Matroska
Format version : Version 4 / Version 2
File size : 7.98 GiB
Duration : 1h 45mn
Overall bit rate : 10.9 Mbps
Movie name : Release Group CINEMANIA
Encoded date : UTC 2014-01-23 22:15:09
Writing application : mkvmerge v6.7.0 ('Back to the Ground') 64bit built on Jan 8 2014 15:10:52
Writing library : libebml v1.3.0 + libmatroska v1.4.1

Video
ID : 1
Format : AVC
Format/Info : Advanced Video Codec
Format profile : High@L4.1
Format settings, CABAC : Yes
Format settings, ReFrames : 4 frames
Codec ID : V_MPEG4/ISO/AVC
Duration : 1h 45mn
Bit rate : 8 891 Kbps
Width : 1 920 pixels
Height : 1 040 pixels
Display aspect ratio : 1.85:1
Frame rate mode : Constant
Frame rate : 23.976 fps
Color space : YUV
Chroma subsampling : 4:2:0
Bit depth : 8 bits
Scan type : Progressive
Bits/(Pixel*Frame) : 0.186
Stream size : 6.38 GiB (80%)
Title : Release Group CINEMANIA
Writing library : x264 core 132 r2310 76a5c3a
Encoding settings : cabac=1 / ref=4 / deblock=1:0:0 / analyse=0x3:0x133 / me=umh / subme=7 / psy=1 / psy_rd=1.00:0.00 / mixed_ref=1 / me_range=16 / chroma_me=1 / trellis=1 / 8x8dct=1 / cqm=0 / deadzone=21,11 / fast_pskip=0 / chroma_qp_offset=-2 / threads=24 / lookahead_threads=4 / sliced_threads=0 / nr=0 / decimate=1 / interlaced=0 / bluray_compat=0 / constrained_intra=0 / bframes=3 / b_pyramid=2 / b_adapt=1 / b_bias=0 / direct=1 / weightb=1 / open_gop=0 / weightp=2 / keyint=250 / keyint_min=23 / scenecut=40 / intra_refresh=0 / rc=2pass / mbtree=0 / bitrate=8891 / ratetol=1.0 / qcomp=0.60 / qpmin=0 / qpmax=69 / qpstep=4 / cplxblur=20.0 / qblur=0.5 / ip_ratio=1.40 / pb_ratio=1.30 / aq=1:1.00
Language : English
Default : Yes
Forced : No

Audio #1
ID : 2
Format : AC-3
Format/Info : Audio Coding 3
Mode extension : CM (complete main)
Format settings, Endianness : Big
Codec ID : A_AC3
Duration : 1h 45mn
Bit rate mode : Constant
Bit rate : 448 Kbps
Channel(s) : 6 channels
Channel positions : Front: L C R, Side: L R, LFE
Sampling rate : 48.0 KHz
Bit depth : 16 bits
Compression mode : Lossy
Stream size : 337 MiB (4%)
Title : М.Чадов
Language : Russian
Default : Yes
Forced : Yes

Audio #2
ID : 3
Format : DTS
Format/Info : Digital Theater Systems
Mode : 16
Format settings, Endianness : Big
Codec ID : A_DTS
Duration : 1h 45mn
Bit rate mode : Constant
Bit rate : 1 509 Kbps
Channel(s) : 6 channels
Channel positions : Front: L C R, Side: L R, LFE
Sampling rate : 48.0 KHz
Bit depth : 24 bits
Compression mode : Lossy
Stream size : 1.11 GiB (14%)
Language : French
Default : No
Forced : No

Text #1
ID : 4
Format : UTF-8
Codec ID : S_TEXT/UTF8
Codec ID/Info : UTF-8 Plain Text
Title : kkad
Language : Russian
Default : No
Forced : No

Text #2
ID : 5
Format : UTF-8
Codec ID : S_TEXT/UTF8
Codec ID/Info : UTF-8 Plain Text
Language : English
Default : No
Forced : No

Menu
00:00:00.000 : en:00:00:00.000
00:04:02.993 : en:00:04:02.993
00:10:29.796 : en:00:10:29.796
00:18:55.092 : en:00:18:55.092
00:24:42.648 : en:00:24:42.648
00:32:08.635 : en:00:32:08.635
00:36:44.744 : en:00:36:44.744
00:42:09.902 : en:00:42:09.902
00:46:50.391 : en:00:46:50.391
00:56:08.907 : en:00:56:08.907
01:05:43.857 : en:01:05:43.857
01:14:55.491 : en:01:14:55.491
01:20:49.094 : en:01:20:49.094
01:27:23.488 : en:01:27:23.488
01:32:59.699 : en:01:32:59.699
01:41:51.105 : en:01:41:51.105
Свернуть
Не в сети
Профиль  
Начать новую темуОтветить на тему  [ 1 сообщение ] 
Вы не можете начинать темы
Вы не можете отвечать на сообщения
Вы не можете редактировать свои сообщения
Вы не можете удалять свои сообщения