Правила форума

  • В этом разделе создание новых тем Запрещено.
  • Для создания новых тем пользуйтесь Корневым разделом DVD и HD фильмы.
Начать новую темуОтветить на тему  [ 1 сообщение ] 
Торрент файл
Размер: 8.48 GB • Зарегистрирован: 5 лет 3 месяца • Статус: Проверено
Скачан: 42 раза • Желающих скачать: 0 • Поблагодарили: 17 раз
 Раздают: 0  |  0 KB/s  ]   Качают: 0  |  0 KB/s  ] 
 Полного источника не было 4 месяца 11 дней 
Сообщения
 Добавлено: 2011-08-10 08:06
Top-releaser
Аватара пользователя
Стаж: 6 лет 7 месяцев
Сообщений: 2078
Спасибок: 3230
Лайков: 9
Александр / Alexander

Изображение

Год выпуска: 2004
Страна: Германия, США, Франция, Нидерланды
Жанр: боевик, драма, приключения, военный, биография
Продолжительность: 2:55:25
Перевод: Профессиональный (полное дублирование)
Режиссёр: Оливер Стоун
В ролях: Колин Фаррелл, Джаред Лето, Анджелина Джоли, Вэл Килмер, Розарио Доусон, Кристофер Пламмер, Энтони Хопкинс, Дэвид Беделла, Джесси Камм, Фиона О`Шонесси
Описание: Картина о громких сражениях, знаменитых победах и мудром правлении Александра Македонского, который в 25 лет завоевал полмира. Что творилось в душе победоносного правителя? Как проходили его дни и ночи? В чем тайна взаимоотношений Александра и его друга — полководца Гефестиона?

Раздача группы: Изображение

Качество: HD-DVD Rip
Формат: MKV
Видео кодек: H.264
Аудио кодек: AC3 (Dolby Digital)
Видео: 1280x544 (2.35:1), 23.976 fps, MPEG-4 AVC, ~4965 kbps
Аудио #1: Русский: AC3, DD 5.1, 48 kHz ~448 kbps
Аудио #2: Английский: DTS 5.1 (DTS), 48 kHz ~1536 kbps (отдельным файлом)
Субтитры: Русские

Факты о фильме
* Изначально некоторые сцены картины должны были сниматься в Индии, однако индийские слоны оказались не настолько хорошо тренированными, поэтому съемки этих сцен прошли в конечном итоге в Таиланде.
* Исполнителя главной роли Колина Фаррела во время съемок постигла нелепая травма - он сломал лодыжку, упав с лестницы во время съемок.
* В декабре 2003 года группа бездомных шведов выстроилась в очередь за билетами на «Александра», хотя премьера была заявлена лишь на конец ноября 2004 года. Они вознамерились поставить палатки неподалеку от кинотеатра и прожить в них около года. Это была своеобразная акция протеста, целью которой было желание заострить внимание властей на проблему бездомных в шведской столице. Тем самым бездомные пытались сыграть на постановлении одного из влиятельных политиков, который провозгласил, что любой кинолюбитель может по праву разбить палатку и проживать в центре Стокгольма, дожидаясь билетов на мировую премьеру. Правда, политик, безусловно, имел в виду другую картину, демонстрировавшуюся на тот момент — «Властелин колец 3».
* Источником вдохновения на создание этой картины для Оливера Стоуна стала биография Александра Македонского, написанная историком Робином Лэйном Фоксом.
* На роль Гефестиона планировалось пригласить Брэда Питта, однако сам актер отказался играть данного персонажа ввиду личной неприязни к его поступкам. В конечном итоге роль досталась Джареду Лето («Реквием по мечте»).
* На исполнение главной роли Оливер Стоун планировал пригласить Тома Круза.
* Роль Филипа должна была достаться нестареющему актеру Шону Коннери, однако в конечном итоге ее исполнил Вэл Килмер.
* Официальная премьера картины была назначена на 5 ноября 2004 года, однако впоследствии была перенесена на 24 ноября. Прежде всего это было сделано для того, что занять неплохую стартовую позицию в погоне за статуэтками Оскара, которых как предполагают аналитики фильм должен собрать немало.
* Участники проекта — Оливер Стоун и Вэл Килмер впервые обсудили идею создания картины о жизни Александра Македонского еще в 1991 года на съемочной площадке картины «Дорз».
* Вэлу Килмеру на съемочной площадке приходилось несладко. Каждый съемочный день начинался для него в гримерке, где актер проводил порядка часа. Гримеры старались на славу, чтобы Вэл выглядел намного старше своего настоящего возраста, ну а кроме того немало времени уходили на создание шрама, покрывавшего глаз, потерянный королем Филипом Вторым во время одной из битв.
Свернуть
MediaInfo
General
Unique ID : 176942462114226016984874190649395576659 (0x851DE0ED5E0E5E79BA649A1FD790FF53)
Complete name : I:\Александр\Alexander.720p\Alexander.720p.mkv
Format : Matroska
File size : 6.64 GiB
Duration : 2h 55mn
Overall bit rate : 5 416 Kbps
Encoded date : UTC 2007-08-19 18:50:59
Writing application : mkvmerge v2.0.2 ('You're My Flame') built on Feb 21 2007 23:40:55
Writing library : libebml v0.7.7 + libmatroska v0.8.1

Video
ID : 1
Format : AVC
Format/Info : Advanced Video Codec
Format profile : High@L5.1
Format settings, CABAC : Yes
Format settings, ReFrames : 8 frames
Format settings, GOP : M=4, N=9
Codec ID : V_MPEG4/ISO/AVC
Duration : 2h 55mn
Bit rate : 4 965 Kbps
Width : 1 280 pixels
Height : 544 pixels
Display aspect ratio : 2.35:1
Frame rate : 23.976 fps
Color space : YUV
Chroma subsampling : 4:2:0
Bit depth : 8 bits
Scan type : Progressive
Bits/(Pixel*Frame) : 0.297
Stream size : 5.96 GiB (90%)
Writing library : x264 core 56 svn-669
Encoding settings : cabac=1 / ref=5 / deblock=1:0:0 / analyse=0x3:0x113 / me=umh / subme=7 / brdo=1 / mixed_ref=1 / me_range=16 / chroma_me=1 / trellis=1 / 8x8dct=1 / cqm=0 / deadzone=21,11 / chroma_qp_offset=0 / threads=6 / nr=0 / decimate=1 / mbaff=0 / bframes=3 / b_pyramid=1 / b_adapt=1 / b_bias=0 / direct=1 / wpredb=1 / bime=1 / keyint=250 / keyint_min=25 / scenecut=40(pre) / rc=2pass / bitrate=4965 / ratetol=1.0 / rceq='blurCplx^(1-qComp)' / qcomp=0.60 / qpmin=10 / qpmax=51 / qpstep=4 / cplxblur=20.0 / qblur=0.5 / ip_ratio=1.40 / pb_ratio=1.30
Language : English

Audio
ID : 2
Format : AC-3
Format/Info : Audio Coding 3
Mode extension : CM (complete main)
Codec ID : A_AC3
Duration : 2h 55mn
Bit rate mode : Constant
Bit rate : 448 Kbps
Channel(s) : 6 channels
Channel positions : Front: L C R, Side: L R, LFE
Sampling rate : 48.0 KHz
Bit depth : 16 bits
Compression mode : Lossy
Stream size : 562 MiB (8%)
Language : Russian

Text
ID : 3
Format : UTF-8
Codec ID : S_TEXT/UTF8
Codec ID/Info : UTF-8 Plain Text
Language : Russian
Свернуть
Скриншоты
Изображение

Изображение

Изображение

Изображение
Свернуть
Не в сети
Профиль  
Начать новую темуОтветить на тему  [ 1 сообщение ] 
Вы не можете начинать темы
Вы не можете отвечать на сообщения
Вы не можете редактировать свои сообщения
Вы не можете удалять свои сообщения