Правила форума

  • В этом разделе создание новых тем Запрещено.
  • Для создания новых тем пользуйтесь Корневым разделом DVD и HD фильмы.
Начать новую темуОтветить на тему  [ Сообщений: 7 ] 
Торрент файл
Размер: 7.95 GB • Зарегистрирован: 4 года 4 месяца • Статус: Проверено
Скачан: 35 раз • Желающих скачать: 0 • Поблагодарили: 15 раз
 Раздают: 0  |  0 KB/s  ]   Качают: 0  |  0 KB/s  ] 
 Полного источника не было 1 год 
Сообщения
 Добавлено: 2012-07-31 21:36
Аватара пользователя
Стаж: 4 года 4 месяца
Возраст: 23
Сообщений: 24
Спасибок: 104
Американская История Икс / American History X

Изображение


Год выпуска: 1998
Страна: США
Слоган: «See reality in your eyes when hate makes you blind»
Жанр: Драма, Криминал
Продолжительность: 01:58:53
Перевод: Профессиональный (многоголосый закадровый) + Оригинальная звуковая дорожка
Субтитры: Русские, Английские

Режиссёр: Тони Кэй
Сценарист: Дэвид МакКенна
Продюсер: Джон Мориссей, Билл Карраро, Майкл Де Лука
Оператор: Тони Кэй
Композитор: Энн Дадли
В ролях: Эдвард Нортон, Эдвард Ферлонг, Беаерли Д'Анджело, Эйвери Брукс, Дженифер Лиен, Этан Сапли, Стейси Кич
Описание: Лидер местной банды скинхэдов Дерек Виньярд прочно удерживает авторитет в своем районе. Убежденный в своей правоте, он беспощадно расправляется с теми, кто имеет не белый цвет кожи. Независимость и смелость Дерека вызывают восхищение у его младшего брата Дэнни, который уже тоже сделал свой выбор.

Но зверское убийство двух чернокожих парней, совершенное Дереком, разделяет дороги братьев: Дерек оказывается в тюрьме, где существует свой расклад сил, а Дэнни на свободе успешно продолжает дело брата. До тех пор, пока их пути не пересеклись вновь…
Рейтинг MPAA: Рейтинг R (Подростки до 17 лет допускаются на фильм только в сопровождении одного из родителей)
Мировая премьера: 30 октября 1998
Бюджет: $20 000 000
Изображение
Изображение

Качество: BDRip, 720p
Формат: MKV
Видео кодек: H264 (AVC)
Аудио кодек: DTS
Видео: 1280x720, 6545 kbps, 23.976 fps
Аудио #1: Русский DTS 5.1, 48 KHz, 1536 kbps [Профессиональный (многоголосый закадровый)]
Аудио #2: Английский DTS 5.1, 48 KHz, 1536 kbps [Оригинальная звуковая дорожка]
Субтитры: Русские, Английские
Скриншоты
Изображение
Изображение
Изображение
Изображение
Свернуть

MediaInfo
General
Complete name : I:\American History X.1998.BD.Rip.720p.h264.Rus.Eng.mkv
Format : Matroska
File size : 7.95 GiB
Duration : 1h 58mn
Overall bit rate : 9 570 Kbps
Encoded date : UTC 2009-04-06 15:34:01
Writing application : mkvmerge v2.6.0 ('Kelly watch the Stars') built on Mar 24 2009 15:23:17
Writing library : libebml v0.7.7 + libmatroska v0.8.1

Video
ID : 1
Format : AVC
Format/Info : Advanced Video Codec
Format profile : High@L4.1
Format settings, CABAC : Yes
Format settings, ReFrames : 9 frames
Muxing mode : Container profile=Unknown@4.1
Codec ID : V_MPEG4/ISO/AVC
Duration : 1h 58mn
Bit rate : 6 360 Kbps
Nominal bit rate : 6 545 Kbps
Width : 1 280 pixels
Height : 720 pixels
Display aspect ratio : 16:9
Frame rate : 23.976 fps
Resolution : 8 bits
Colorimetry : 4:2:0
Scan type : Progressive
Bits/(Pixel*Frame) : 0.288
Stream size : 5.28 GiB (66%)
Writing library : x264 core 67 r1134M b8808bf
Encoding settings : cabac=1 / ref=9 / deblock=1:-3:-3 / analyse=0x3:0x113 / me=umh / subme=9 / psy_rd=1.0:0.0 / mixed_ref=1 / me_range=32 / chroma_me=1 / trellis=2 / 8x8dct=1 / cqm=0 / deadzone=21,11 / chroma_qp_offset=-2 / threads=6 / nr=0 / decimate=1 / mbaff=0 / bframes=3 / b_pyramid=1 / b_adapt=2 / b_bias=0 / direct=3 / wpredb=1 / keyint=250 / keyint_min=25 / scenecut=40 / rc=2pass / bitrate=6545 / ratetol=1.0 / qcomp=0.60 / qpmin=10 / qpmax=51 / qpstep=4 / cplxblur=20.0 / qblur=0.5 / ip_ratio=1.40 / pb_ratio=1.30 / aq=1:0.80
Language : English

Audio #1
ID : 2
Format : DTS
Format/Info : Digital Theater Systems
Codec ID : A_DTS
Duration : 1h 58mn
Bit rate mode : Constant
Bit rate : 1 510 Kbps
Channel(s) : 6 channels
Channel positions : Front: L C R, Surround: L R, LFE
Sampling rate : 48.0 KHz
Resolution : 24 bits
Stream size : 1.25 GiB (16%)
Title : DTS 5.1 1536 kbps
Language : Russian

Audio #2
ID : 3
Format : DTS
Format/Info : Digital Theater Systems
Codec ID : A_DTS
Duration : 1h 58mn
Bit rate mode : Constant
Bit rate : 1 510 Kbps
Channel(s) : 6 channels
Channel positions : Front: L C R, Surround: L R, LFE
Sampling rate : 48.0 KHz
Resolution : 24 bits
Stream size : 1.25 GiB (16%)
Title : DTS 5.1 1536 kbps
Language : English

Text #1
ID : 4
Format : UTF-8
Codec ID : S_TEXT/UTF8
Codec ID/Info : UTF-8 Plain Text
Title : Rus1
Language : Russian

Text #2
ID : 5
Format : UTF-8
Codec ID : S_TEXT/UTF8
Codec ID/Info : UTF-8 Plain Text
Title : Rus2
Language : Russian

Text #3
ID : 6
Format : UTF-8
Codec ID : S_TEXT/UTF8
Codec ID/Info : UTF-8 Plain Text
Language : English
Свернуть
Изображение


Последний раз редактировалось ganza93 2012-08-03 20:31, всего редактировалось 2 раз(а).
Не в сети
Профиль  
 Добавлено: 2012-07-31 22:12 (спустя 36 минут)
Букмекер
Аватара пользователя
Стаж: 7 лет 3 месяца
Возраст: 23
Сообщений: 2321
Спасибок: 7799
Лайков: 58
нифига се вес 7.95 GB
Не в сети
Профиль  
 Добавлено: 2012-08-01 14:00 (спустя 15 часов)
Руководитель релиз-группы
Аватара пользователя
Стаж: 7 лет 5 месяцев
Возраст: 31
Сообщений: 3406
Спасибок: 46729
Лайков: 5
ganza93
это BDRip, 720p
Внимание: Для DVD и HD-разделов необходимы развернутые технические данные:
Для DVD: Отчет DVDInfo (под спойлером)
DVDInfo

Cкрытый текст
Изображение
Свернуть
Назначение - быстрое получение информации о DVD-диске или отдельных его title-set'ах.
Использование:
- запустить программу и в открывшемся окне выбора директории выбрать VIDEO_TS диру на диске или на харде, где находится VIDEO_TS.IFO.
- дать в командной строке параметром путь к директории, где лежит VIDEO_TS.IFO на диске или на харде
- дать в командной строке полный путь к любому IFO-файлу
- воспользоваться расширением эксплорера и выбрать новый пункт в выпадающем по правой кнопке меню файла.
- ассоциировать в TotalCommander-е с расширением IFO на кнопку Alt+F3 (ну или любую другую в любом другом файл-менеджере)
- перенаправить информацию в текстовый файл, задав определенные параметры в командной строке (список параметров выдается если задать параметр /?) и поставить в конце ">file.txt". [Внимание! Программа ничего не выдает на вызывающую ее консоль, это не консольная аппликация. Данный режим только для перенаправления информации в файл.]
- использовать информационный модуль, сделанный в виде ActiveX-компоненты и который собственно и вытаскивает инфу из файлов, в своей собственной программе smileold.gif

Если программа получит путь к VIDEO_TS.IFO, то покажет инфу по всем найденным VTS, относящемся к выбранному ДВД. Если же к конкретному VTS.IFO - то только о нем.

Программа работает только с IFO-файлами, не делая анализа VOB-ов, поэтому информация типа делеев дорожеи или других подробностей, нее относящихся к IFO - не выдает. Короче то, что она показывает, можно получить и в IfoEdit-е winkold.gif.

Обновление версии программы до 1.1.0!
* Окно программы стало Drag-n-Drop-ным, то есть принимает дроп-нутый на него линк на файл.
* Окно программы опционально может быть "Always on top".
* Сохраняется последнее местоположение окна программы и в следующий раз оно открывается на том же месте (опционально).
* Максимальное количество возможных PGC увеличено с 25 до 100.
* Автоматически из списка VTS выбирается тот, который содержит максимально длинный видеофрагмент.
* Показываются VTS PUOs (Prohibited User Operations - если они имеются конечно).
* Для каждого VTS показываются длины входящих в него PGC (если их больше одного).
* Исправлено некорректное определение DTS дорожки.
* Более корректно показывается количество аудио и видеодорожек (в тех сборках, которые сделаны с несоблюдением соответствия количества в разных IFO файлах).
* Исправлено - не открывалось окно выбора при нажатии Ctrl+O.
* Изменено - при отказе от первоначального выбора диска/директории окно закрывалось, теперь остается открытым с отсутствующей информацией.

Скачать с офсайта
Свернуть

Для HD: Отчет BDInfo→ (после нажатия кнопки «scan bitrates» и окончания сканирования) или MediaInfo→ ( весь текст из режима view (вид) → text (текст).) (под спойлером)
Не в сети
Профиль  
 Добавлено: 2012-09-24 20:27 (спустя 1 месяц 23 дня)
Стаж: 5 лет 10 месяцев
Сообщений: 40
Дайте кто-нибудь скорости, ради бога
Не в сети
Профиль  
 Добавлено: 2012-09-24 21:39 (спустя 1 час 12 минут)
Стаж: 7 лет 8 месяцев
Сообщений: 15
)))
Не в сети
Профиль  
 Добавлено: 2012-09-28 20:22 (спустя 3 дня)
Стаж: 5 лет 10 месяцев
Сообщений: 40
Дайте кто-нибудь докачать, осталось 8% :bra_vo:
Не в сети
Профиль  
 Добавлено: 2012-09-28 22:46 (спустя 2 часа 23 минуты)
Стаж: 7 лет 6 месяцев
Возраст: 32
Сообщений: 71
Лайков: 1

foto-vita:

Дайте кто-нибудь докачать, осталось 8% :bra_vo:

оставляю на ночь! тока с пчелайном я :par_don:
Не в сети
Профиль  
Начать новую темуОтветить на тему  [ Сообщений: 7 ] 
Вы не можете начинать темы
Вы не можете отвечать на сообщения
Вы не можете редактировать свои сообщения
Вы не можете удалять свои сообщения