Правила форума

  • В этом разделе создание новых тем Запрещено.
  • Для создания новых тем пользуйтесь Корневым разделом DVD и HD фильмы.
Начать новую темуОтветить на тему  [ Сообщений: 3 ] 
Торрент файл
Размер: 7.4 GB • Зарегистрирован: 3 года 1 месяц • Статус: Проверено
Скачан: 4 раза • Желающих скачать: 0 • Поблагодарили: 2 раза
 Раздают: 0  |  0 KB/s  ]   Качают: 0  |  0 KB/s  ] 
 Полного источника не было 2 года 11 месяцев 
Сообщения
 Добавлено: 2013-10-22 12:37
Аватара пользователя
Стаж: 6 лет
Сообщений: 201
Спасибок: 449
Лайков: 7
Американский жиголо / American Gigolo

Изображение


Год выпуска: 1980
Страна: США (Paramount Pictures)
Жанр: Триллер, драма, детектив
Продолжительность: 01:56:35
Перевод: Профессиональный (многоголосый закадровый)

Режиссёр: Пол Шредер
В ролях: Ричард Гир, Лоурен Хаттон, Гектор Элизондо, Нина Ван Палландт, Билл Дьюк, Брайан Дейвис, К. Каллэн, Том Стюарт, Патриция Карр, Дэвид Крайер, Кэрол Брюс, МакДональд Кэри
Описание: Второго такого не найти! Джулиан Кэй - единственный и неповторимый! Он легко изъясняется на шести языках. Он - изысканный, начитанный собеседник. Он - чувственен и интеллигентен. Он безмерно элегантен и немыслимо привлекателен. Ни одна женщина не в силах устоять перед его чарами. Что, в сущности, и требуется Джулиану для его повседневной работы, так как он - профессиональный соблазнитель. Причем - самый высокооплачиваемый в Голливуде. Его сердце защищено ледяным панцирем от лишних нежных чувств, которые внезапно могут возникнуть на службе или вне ее - работе не должно мешать ничто! Казалось бы, в жизни прекрасного жиголо все будет прекрасно. Но вот одну из клиенток Джулиана находят мертвой, а самого его начинают подозревать в убийстве.


Файл
Качество: BDRip 720p
Видео: MPEG-4 AVC, 8000 Кбит/с, 1280x720, 23.976 кадр/с
Аудио #1: Русский (AC3, 6 ch, 448 Кбит/с) / Профессиональный многоголосый
Аудио #2: Русский (AC3, 2 ch, 192 Кбит/с) / Профессиональный многоголосый (СТС)
Аудио #3: Английский (AC3, 6 ch, 448 Кбит/с)
Субтитры: Русские, английские

Скриншоты
Изображение
Изображение
Изображение
Изображение
Свернуть

MI
Общее
Уникальный идентификатор : 186814783619033671580164683184818462952 (0x8C8B37F507B197BCAD38B3F22885A0E8)
Полное имя : D:Mои раздачиAmerican.Gigolo.1980.BDRip.(720p)-MediaClub.mkv
Формат : Matroska
Версия формата : Version 4 / Version 2
Размер файла : 7,40 Гбайт
Продолжительность : 1 ч. 56 м.
Общий поток : 9085 Кбит/сек
Название фильма : -=MediaClub-kaspr=-
Дата кодирования : UTC 2013-10-22 06:32:59
Программа кодирования : mkvmerge v6.1.0 ('Old Devil') built on Mar 4 2013 09:10:42
Библиотека кодирования : libebml v1.3.0 + libmatroska v1.4.0

Видео
Идентификатор : 1
Формат : AVC
Формат/Информация : Advanced Video Codec
Профиль формата : High@L4.1
Параметр CABAC формата : Да
Параметр ReFrames формата : 8 кадров
Идентификатор кодека : V_MPEG4/ISO/AVC
Продолжительность : 1 ч. 56 м.
Битрейт : 8000 Кбит/сек
Ширина : 1280 пикселей
Высота : 720 пикселей
Соотношение сторон : 16:9
Режим частоты кадров : Постоянный
Частота кадров : 23,976 кадра/сек
Цветовое пространство : YUV
Субдискретизация насыщенности : 4:2:0
Битовая глубина : 8 бит
Тип развёртки : Прогрессивная
Бит/(Пиксели*Кадры) : 0.362
Размер потока : 6,37 Гбайт (86%)
Заголовок : -=MediaClub-kaspr=-
Библиотека кодирования : x264 core 130 r2273 b3065e6
Настройки программы : cabac=1 / ref=8 / deblock=1:-3:-3 / analyse=0x3:0x133 / me=umh / subme=11 / psy=1 / psy_rd=1.00:0.20 / mixed_ref=1 / me_range=48 / chroma_me=1 / trellis=2 / 8x8dct=1 / cqm=0 / deadzone=21,11 / fast_pskip=0 / chroma_qp_offset=-3 / threads=12 / lookahead_threads=2 / sliced_threads=0 / nr=0 / decimate=0 / interlaced=0 / bluray_compat=0 / constrained_intra=0 / bframes=8 / b_pyramid=2 / b_adapt=2 / b_bias=0 / direct=3 / weightb=1 / open_gop=0 / weightp=2 / keyint=240 / keyint_min=23 / scenecut=40 / intra_refresh=0 / rc=2pass / mbtree=0 / bitrate=8000 / ratetol=1.0 / qcomp=0.60 / qpmin=0 / qpmax=69 / qpstep=4 / cplxblur=20.0 / qblur=0.5 / ip_ratio=1.40 / pb_ratio=1.30 / aq=1:1.00
Default : Да
Forced : Нет

Аудио #1
Идентификатор : 2
Формат : AC-3
Формат/Информация : Audio Coding 3
Расширение режима : CM (complete main)
Параметр Endianness формата : Big
Идентификатор кодека : A_AC3
Продолжительность : 1 ч. 56 м.
Вид битрейта : Постоянный
Битрейт : 448 Кбит/сек
Каналы : 6 каналов
Расположение каналов : Front: L C R, Side: L R, LFE
Частота : 48,0 КГц
Битовая глубина : 16 бит
Метод сжатия : С потерями
Размер потока : 374 Мбайт (5%)
Заголовок : MVO
Язык : Russian
Default : Да
Forced : Да

Аудио #2
Идентификатор : 3
Формат : AC-3
Формат/Информация : Audio Coding 3
Расширение режима : CM (complete main)
Параметр Endianness формата : Big
Идентификатор кодека : A_AC3
Продолжительность : 1 ч. 56 м.
Вид битрейта : Постоянный
Битрейт : 192 Кбит/сек
Каналы : 2 канала
Расположение каналов : Front: L R
Частота : 48,0 КГц
Битовая глубина : 16 бит
Метод сжатия : С потерями
Размер потока : 160 Мбайт (2%)
Заголовок : STS
Язык : Russian
Default : Нет
Forced : Нет

Аудио #3
Идентификатор : 4
Формат : AC-3
Формат/Информация : Audio Coding 3
Расширение режима : CM (complete main)
Параметр Endianness формата : Big
Идентификатор кодека : A_AC3
Продолжительность : 1 ч. 56 м.
Вид битрейта : Постоянный
Битрейт : 448 Кбит/сек
Каналы : 6 каналов
Расположение каналов : Front: L C R, Side: L R, LFE
Частота : 48,0 КГц
Битовая глубина : 16 бит
Метод сжатия : С потерями
Размер потока : 374 Мбайт (5%)
Язык : English
Default : Нет
Forced : Нет

Текст #1
Идентификатор : 5
Формат : UTF-8
Идентификатор кодека : S_TEXT/UTF8
Идентификатор кодека/Информация : UTF-8 Plain Text
Язык : Russian
Default : Нет
Forced : Нет

Текст #2
Идентификатор : 6
Формат : UTF-8
Идентификатор кодека : S_TEXT/UTF8
Идентификатор кодека/Информация : UTF-8 Plain Text
Язык : English
Default : Нет
Forced : Нет

Меню
00:00:00.000 : en:Chapter 01
00:03:26.247 : en:Chapter 02
00:10:36.427 : en:Chapter 03
00:16:37.496 : en:Chapter 04
00:21:18.110 : en:Chapter 05
00:23:46.299 : en:Chapter 06
00:26:16.950 : en:Chapter 07
00:32:35.912 : en:Chapter 08
00:34:53.091 : en:Chapter 09
00:40:36.183 : en:Chapter 10
00:45:26.765 : en:Chapter 11
00:52:42.534 : en:Chapter 12
00:58:19.913 : en:Chapter 13
01:01:34.315 : en:Chapter 14
01:05:09.363 : en:Chapter 15
01:10:06.785 : en:Chapter 16
01:12:39.605 : en:Chapter 17
01:15:22.976 : en:Chapter 18
01:19:53.955 : en:Chapter 19
01:24:15.842 : en:Chapter 20
01:27:09.224 : en:Chapter 21
01:30:25.169 : en:Chapter 22
01:32:39.554 : en:Chapter 23
01:35:10.454 : en:Chapter 24
01:40:28.897 : en:Chapter 25
01:47:07.712 : en:Chapter 26
01:51:43.321 : en:Chapter 27
Свернуть
Изображение


Последний раз редактировалось SKEPTIK 2013-10-25 07:30, всего редактировалось 2 раз(а).
Не в сети
Профиль  
 Добавлено: 2013-10-24 11:43 (спустя 1 день 23 часа)
Модератор
Аватара пользователя
Стаж: 8 лет 11 месяцев
Сообщений: 516
Спасибок: 26888
Лайков: 1
Внимание: Для DVD и HD-разделов необходимы развернутые технические данные:
Для HD: Отчет MediaInfo или BDInfo (под спойлером)
Разрешение скриншота должно строго совпадать с разрешением, указанным в технических данных видео и не должны содержать счетчиков, надписей и т.п., которых нет на видео.
Допустимые форматы: jpg, png.
Не в сети
Профиль  
 Добавлено: 2013-10-25 08:03 (спустя 20 часов)
Аватара пользователя
Стаж: 6 лет
Сообщений: 201
Спасибок: 449
Лайков: 7
Добавил MediaInfo.
_________________
Есть только две бесконечные вещи: Вселенная и глупость. Хотя насчет Вселенной я не вполне уверен.
Не в сети
Профиль  
Начать новую темуОтветить на тему  [ Сообщений: 3 ] 
Вы не можете начинать темы
Вы не можете отвечать на сообщения
Вы не можете редактировать свои сообщения
Вы не можете удалять свои сообщения