Правила форума

  • В этом разделе создание новых тем Запрещено.
  • Для создания новых тем пользуйтесь Корневым разделом DVD и HD фильмы.
Начать новую темуОтветить на тему  [ Сообщений: 2 ] 
Торрент файл
Размер: 11.55 GB • Зарегистрирован: 4 года 3 месяца • Статус: Проверено
Скачан: 199 раз • Желающих скачать: 0 • Поблагодарили: 37 раз
 Раздают: 0  |  0 KB/s  ]   Качают: 0  |  0 KB/s  ] 
 Полного источника не было 13 дней 
Сообщения
 Добавлено: 2012-08-09 19:34
Top-releaser
Аватара пользователя
Стаж: 8 лет 9 месяцев
Сообщений: 479
Спасибок: 20189
Лайков: 16
Изображение

Американский пирог: Все в сборе

American Reunion


«Самый лакомый кусочек на конец»

Год выпуска: 2012
Страна: Изображение США; Practical Pictures, Relativity Media, Universal Pictures, Zoe Pictures
Жанр: Комедия
Продолжительность: 01:52:53
Перевод: Профессиональный (дублированный) [Лицензия], Оригинал
Субтитры: Русские, английские

Режиссёр: Джон Харвитц, Хейден Шлоссбе / Jon Hurwitz, Hayden Schlos

В ролях: Джейсон Биггз, Элисон Хэннигэн, Крис Клейн, Томас Иэн Николас, Тара Рид, Шонн Уильям Скотт, Мена Сувари, Эдди Кэй Томас, Джон Чо, Дженнифер Кулидж, Юджин Леви

Описание: Герои «Американского пирога» встречаются вновь спустя несколько лет. Они докажут, что даже время и расстояние не в силах разрушить их дружбу. Летом 1999-го четверо мичиганских парней решили расстаться с невинностью. Прошли годы, и теперь друзья вернулись домой уже повзрослевшими, чтобы вспомнить прошлое и оторваться на полную катушку.


Качество: BDRip 1080p
Формат: MKV

Видео: MPEG-4 AVC, 11.8 Мбит/с, 1920x1040, 23.976 кадр/с

Аудио 1: DTS at 755 Кбит/сек, 6 канала(ов), 48,0 КГц [Дубляж]
Аудио 2: DTS at 1510 Кбит/сек, 6 канала(ов), 48,0 КГц [Оригинал]
Аудио 3: AC-3 at 192 Кбит/сек, 2 канала(ов), 48,0 КГц [Commentary]
Аудио 4: AC-3 at 192 Кбит/сек, 2 канала(ов), 48,0 КГц [Commentary]
Аудио 5: AC-3 at 192 Кбит/сек, 2 канала(ов), 48,0 КГц [Commentary]
Раздача: Изображение


Изображение
MediaInfo

Общее
Уникальный идентификатор : 253123581405605251074751804927404812979 (0xBE6DD418F770B7ADB4B936BA95222AB3)
Полное имя : C:\Users\Домашний\Desktop\Amerikanskij.pirog.Vse.v.sbore.2012.D.BDRip.1080p.nntt.org.mkv
Формат : Matroska
Размер файла : 11,6 Гбайт
Продолжительность : 1 ч. 52 м.
Общий поток : 14,6 Мбит/сек
Название фильма : IRONCLUB
Дата кодирования : UTC 2012-08-08 08:13:28
Программа кодирования : mkvmerge v4.9.1 ('Ich will') built on Jul 11 2011 23:53:15
Библиотека кодирования : libebml v1.2.1 + libmatroska v1.1.1

Видео
Идентификатор : 1
Формат : AVC
Формат/Информация : Advanced Video Codec
Профиль формата : High@L4.1
Параметр CABAC формата : Да
Параметр ReFrames формата : 4 кадры
Идентификатор кодека : V_MPEG4/ISO/AVC
Продолжительность : 1 ч. 52 м.
Битрейт : 11,8 Мбит/сек
Ширина : 1920 пикс.
Высота : 1040 пикс.
Соотношение сторон : 16:9
Частота кадров : 23,976 кадр/сек
Цветовое пространство : YUV
Подвыборка цветности : 4:2:0
Битовая глубина : 8 бит
Тип развёртки : Прогрессивная
Бит/(Пиксели*Кадры) : 0.246
Размер потока : 9,08 Гбайт (79%)
Заголовок : American.Reunion.2012.1080p.BluRay.x264.DTS-HDChina
Библиотека кодирования : x264 core 125 r2200 999b753
Настройки программы : cabac=1 / ref=4 / deblock=1:-3:-3 / analyse=0x3:0x113 / me=umh / subme=10 / psy=1 / psy_rd=1.10:0.00 / mixed_ref=1 / me_range=48 / chroma_me=1 / trellis=2 / 8x8dct=1 / cqm=0 / deadzone=21,11 / fast_pskip=0 / chroma_qp_offset=-2 / threads=18 / lookahead_threads=3 / sliced_threads=0 / nr=0 / decimate=0 / interlaced=0 / bluray_compat=0 / constrained_intra=0 / bframes=8 / b_pyramid=2 / b_adapt=2 / b_bias=0 / direct=3 / weightb=1 / open_gop=0 / weightp=2 / keyint=240 / keyint_min=24 / scenecut=40 / intra_refresh=0 / rc_lookahead=120 / rc=2pass / mbtree=1 / bitrate=11800 / ratetol=1.0 / qcomp=0.55 / qpmin=0 / qpmax=69 / qpstep=4 / cplxblur=20.0 / qblur=0.5 / ip_ratio=1.40 / aq=1:0.90
Язык : English

Аудио #1
Идентификатор : 2
Формат : DTS
Формат/Информация : Digital Theater Systems
Идентификатор кодека : A_DTS
Продолжительность : 1 ч. 52 м.
Вид битрейта : Постоянный
Битрейт : 755 Кбит/сек
Канал(ы) : 6 канала(ов)
Расположение каналов : Front: L C R, Side: L R, LFE
Частота : 48,0 КГц
Битовая глубина : 24 бит
Метод сжатия : С потерями
Размер потока : 609 Мбайт (5%)
Заголовок : DTS 5.1 @ 768 kbps - BD CEE
Язык : Russian

Аудио #2
Идентификатор : 3
Формат : DTS
Формат/Информация : Digital Theater Systems
Идентификатор кодека : A_DTS
Продолжительность : 1 ч. 52 м.
Вид битрейта : Постоянный
Битрейт : 1510 Кбит/сек
Канал(ы) : 6 канала(ов)
Расположение каналов : Front: L C R, Side: L R, LFE
Частота : 48,0 КГц
Битовая глубина : 24 бит
Метод сжатия : С потерями
Размер потока : 1,19 Гбайт (10%)
Заголовок : DTS 5.1 @ 1536 kbps
Язык : English

Аудио #3
Идентификатор : 4
Формат : AC-3
Формат/Информация : Audio Coding 3
Профиль формата : Dolby Digital
Расширение режима : CM (complete main)
Идентификатор кодека : A_AC3
Продолжительность : 1 ч. 52 м.
Вид битрейта : Постоянный
Битрейт : 192 Кбит/сек
Канал(ы) : 2 канала(ов)
Расположение каналов : Front: L R
Частота : 48,0 КГц
Битовая глубина : 16 бит
Метод сжатия : С потерями
Размер потока : 155 Мбайт (1%)
Заголовок : Commentary 1
Язык : English

Аудио #4
Идентификатор : 5
Формат : AC-3
Формат/Информация : Audio Coding 3
Профиль формата : Dolby Digital
Расширение режима : CM (complete main)
Идентификатор кодека : A_AC3
Продолжительность : 1 ч. 52 м.
Вид битрейта : Постоянный
Битрейт : 192 Кбит/сек
Канал(ы) : 2 канала(ов)
Расположение каналов : Front: L R
Частота : 48,0 КГц
Битовая глубина : 16 бит
Метод сжатия : С потерями
Размер потока : 155 Мбайт (1%)
Заголовок : Commentary 2
Язык : English

Аудио #5
Идентификатор : 6
Формат : AC-3
Формат/Информация : Audio Coding 3
Профиль формата : Dolby Digital
Расширение режима : CM (complete main)
Идентификатор кодека : A_AC3
Продолжительность : 1 ч. 52 м.
Вид битрейта : Постоянный
Битрейт : 192 Кбит/сек
Канал(ы) : 2 канала(ов)
Расположение каналов : Front: L R
Частота : 48,0 КГц
Битовая глубина : 16 бит
Метод сжатия : С потерями
Размер потока : 155 Мбайт (1%)
Заголовок : Commentary 3
Язык : English

Текст #1
Идентификатор : 7
Формат : UTF-8
Идентификатор кодека : S_TEXT/UTF8
Идентификатор кодека/Информация : UTF-8 Plain Text
Заголовок : Forced
Язык : Russian

Текст #2
Идентификатор : 8
Формат : UTF-8
Идентификатор кодека : S_TEXT/UTF8
Идентификатор кодека/Информация : UTF-8 Plain Text
Заголовок : BD CEE
Язык : Russian

Текст #3
Идентификатор : 9
Формат : UTF-8
Идентификатор кодека : S_TEXT/UTF8
Идентификатор кодека/Информация : UTF-8 Plain Text
Заголовок : SDH
Язык : English

Меню
00:00:00.000 : en:00:00:00.000
00:04:48.746 : en:00:04:48.746
00:08:58.287 : en:00:08:58.287
00:14:26.240 : en:00:14:26.240
00:18:52.172 : en:00:18:52.172
00:23:37.624 : en:00:23:37.624
00:27:29.147 : en:00:27:29.147
00:32:01.627 : en:00:32:01.627
00:40:35.849 : en:00:40:35.849
00:45:38.985 : en:00:45:38.985
00:52:31.356 : en:00:52:31.356
00:59:34.779 : en:00:59:34.779
01:05:54.325 : en:01:05:54.325
01:10:09.788 : en:01:10:09.788
01:14:03.813 : en:01:14:03.813
01:23:02.185 : en:01:23:02.185
01:27:57.062 : en:01:27:57.062
01:36:03.215 : en:01:36:03.215
01:42:07.746 : en:01:42:07.746
01:48:11.943 : en:01:48:11.943



Свернуть
Скриншоты

Изображение
Изображение
Изображение
Изображение
Изображение
Свернуть
_________________
Изображение
Изображение
Не в сети
Профиль  
 Добавлено: 2012-08-13 09:48 (спустя 3 дня)
Стаж: 7 лет 9 месяцев
Сообщений: 35
ржач, как в старые добрые времена)
Не в сети
Профиль  
Начать новую темуОтветить на тему  [ Сообщений: 2 ] 
Вы не можете начинать темы
Вы не можете отвечать на сообщения
Вы не можете редактировать свои сообщения
Вы не можете удалять свои сообщения