Правила форума

  • В этом разделе создание новых тем Запрещено.
  • Для создания новых тем пользуйтесь Корневым разделом DVD и HD фильмы.
Начать новую темуОтветить на тему  [ 1 сообщение ] 
Торрент файл
Размер: 8.75 GB • Зарегистрирован: 4 года 6 месяцев • Статус: Проверено
Скачан: 43 раза • Желающих скачать: 0 • Поблагодарили: 22 раза
 Раздают: 0  |  0 KB/s  ]   Качают: 0  |  0 KB/s  ] 
 Полного источника не было 1 день 9 часов 
Сообщения
 Добавлено: 2014-03-24 22:06
Аватара пользователя
Стаж: 8 лет 9 месяцев
Сообщений: 59
Спасибок: 336
Ананасовый экспресс: сижу, курю / Pineapple Express

Изображение


Год выпуска: 2008
Страна: США
Слоган: «Put this in your pipe and smoke it.»
Жанр: Комедия, триллер, криминал
Продолжительность: 01:52:00
Перевод: Профессиональный (дубляж)
Субтитры: Английские

Режиссёр: Дэвид Гордон Грин
Сценарист: Сет Роген, Ивэн Голдберг, Джудд Апатоу
Продюсер: Джудд Апатоу, Шона Робертсон, Ивэн Голдберг
Оператор: Тим Орр
Композитор: Грэм Ревелл
В ролях: Сит Роген, Джеймс Франко, Дэнни МакБрайд, Кевин Корриган, Крэйг Робинсон, Гари Коул, Рози Перез, Эд Бегли мл., Нора Данн, Эмбер Хёрд
Описание: Двум никчемным торчкам выпадает шанс реально "взбодриться", когда они неожиданно попадают на мушку злобных бандитов. Дэйл Дентон навещает немногословного Сола Силвера, чтобы приобрести последнюю новинку - редкий сорт травы под названием "Ананасовый Экспресс". Но неожиданно эти двое становятся жертвами. На сей раз - повезло! Они становятся лишь жертвами обстоятельств, когда Дэйл оказывается единственным свидетелем убийства, совершенного продажным полицейским и самым опасным головорезом в городе - наркобароном, В панике Дэйл скидывает траву на месте преступления. И незадачливым парням приходится уносить ноги. Вскоре они осознают, что все события - это не просто наркотический бред, и, если уж им удастся выбраться из этого переплета, то "Ананасовый Экспресс" может подарить им кое-что получше мимолетного кайфа - он может привести их к настоящей дружбе.
Рейтинг MPAA: Рейтинг R (Подростки до 17 лет допускаются на фильм только в сопровождении одного из родителей)
Мировая премьера: 6 августа 2008
Премьера в России: 4 декабря 2008
Бюджет: $27 000 000
Кассовые сборы: $101 624 843
Изображение Изображение

Качество: BDRip 1080p
Формат: MKV
Видео кодек: H.264
Аудио кодек: AC3 (Dolby Digital)
Видео: 1920x800, 10280 kbps, 23.976 fps
Аудио #1: Русский AC3 5.1, 48 KHz, 448 kbps [Профессиональный (дубляж)]
Аудио #2: Английский AC3 5.1, 48 KHz, 448 kbps (ядро TrueHD)
Субтитры: Английские

Скриншоты
Изображение
Изображение
Изображение
Свернуть



"MI"
General
Unique ID : 190104730334899828875335393714971646128 (0x8F04D6DA8A6295189F6280B54C1498B0)
Complete name : D:\Вова\Кино\Ананасовый экспресс сижу, курю.2008.BD.Rip.1080p..mkv
Format : Matroska
Format version : Version 1
File size : 8.75 GiB
Duration : 1h 52mn
Overall bit rate : 11.2 Mbps
Encoded date : UTC 2009-01-17 13:43:39
Writing application : mkvmerge v2.4.1 ('Use Me') built on Dec 5 2008 18:30:05
Writing library : libebml v0.7.7 + libmatroska v0.8.1

Video
ID : 1
Format : AVC
Format/Info : Advanced Video Codec
Format profile : High@L4.1
Format settings, CABAC : Yes
Format settings, ReFrames : 5 frames
Codec ID : V_MPEG4/ISO/AVC
Duration : 1h 52mn
Bit rate : 10.3 Mbps
Width : 1 920 pixels
Height : 800 pixels
Display aspect ratio : 2.40:1
Frame rate : 23.976 fps
Color space : YUV
Chroma subsampling : 4:2:0
Bit depth : 8 bits
Scan type : Progressive
Bits/(Pixel*Frame) : 0.279
Stream size : 7.87 GiB (90%)
Writing library : x264 core 65 r1080M 56e9183
Encoding settings : cabac=1 / ref=5 / deblock=1:-3:-3 / analyse=0x3:0x113 / me=umh / subme=9 / psy_rd=1.0:0.0 / mixed_ref=1 / me_range=32 / chroma_me=1 / trellis=0 / 8x8dct=1 / cqm=2 / deadzone=6,4 / chroma_qp_offset=-2 / threads=6 / nr=0 / decimate=0 / mbaff=0 / bframes=3 / b_pyramid=1 / b_adapt=2 / b_bias=0 / direct=3 / wpredb=1 / keyint=240 / keyint_min=24 / scenecut=40(pre) / rc=2pass / bitrate=10280 / ratetol=1.0 / qcomp=0.60 / qpmin=10 / qpmax=51 / qpstep=4 / cplxblur=20.0 / qblur=0.5 / ip_ratio=1.40 / pb_ratio=1.30 / aq=1:1.00
Language : English
Default : Yes
Forced : No

Audio #1
ID : 2
Format : AC-3
Format/Info : Audio Coding 3
Mode extension : CM (complete main)
Format settings, Endianness : Big
Codec ID : A_AC3
Duration : 1h 52mn
Bit rate mode : Constant
Bit rate : 448 Kbps
Channel(s) : 6 channels
Channel positions : Front: L C R, Side: L R, LFE
Sampling rate : 48.0 KHz
Bit depth : 16 bits
Compression mode : Lossy
Stream size : 359 MiB (4%)
Title : AC3 5.1 448 kbps
Language : Russian
Default : Yes
Forced : No

Audio #2
ID : 3
Format : AC-3
Format/Info : Audio Coding 3
Mode extension : CM (complete main)
Format settings, Endianness : Big
Codec ID : A_AC3
Duration : 1h 52mn
Bit rate mode : Constant
Bit rate : 448 Kbps
Channel(s) : 6 channels
Channel positions : Front: L C R, Side: L R, LFE
Sampling rate : 48.0 KHz
Bit depth : 16 bits
Compression mode : Lossy
Stream size : 359 MiB (4%)
Title : AC3 5.1 448 kbps
Language : English
Default : No
Forced : No

Text
ID : 4
Format : UTF-8
Codec ID : S_TEXT/UTF8
Codec ID/Info : UTF-8 Plain Text
Language : English
Default : No
Forced : No


Свернуть


Тема поднималась пользователем uzu 2014-03-24 22:06.
Не в сети
Профиль  
Начать новую темуОтветить на тему  [ 1 сообщение ] 
Вы не можете начинать темы
Вы не можете отвечать на сообщения
Вы не можете редактировать свои сообщения
Вы не можете удалять свои сообщения