Правила форума

  • В этом разделе создание новых тем Запрещено.
  • Для создания новых тем пользуйтесь Корневым разделом DVD и HD фильмы.
Начать новую темуОтветить на тему  [ Сообщений: 6 ] 
Торрент файл
Размер: 4.37 GB • Зарегистрирован: 2 года 11 месяцев • Статус: Проверено
Скачан: 47 раз • Желающих скачать: 0 • Поблагодарили: 20 раз
 Раздают: 1  |  0 KB/s  ]   Качают: 0  |  0 KB/s  ] 
Сообщения
 Добавлено: 2013-12-31 14:03
Книголюб
Аватара пользователя
Стаж: 7 лет 2 месяца
Сообщений: 2823
Спасибок: 48829
Лайков: 73
Андроид
App

Изображение


Год выпуска: 2013
Страна: Нидерланды
Жанр: триллер
Продолжительность: 01:18:43
Перевод: Профессиональный (дубляж) [Лицензия]

Режиссёр: Бобо Боерманс
В ролях: Ханна Хекстра, Исис Каболе, Роберт де Хуг, Алекс Хендрикс, Маттис ван де Санде Бакхуйзен, Патрик Мартенс, Гиги Равелли, Харри ван Рейтховен, Лиза Сипс, Ерун Шпиценбергер
Описание: Симпатичная студентка Анна просыпается после вечеринки и обнаруживает на своем смартфоне загадочное приложение «Айрис»… Активируя приложение, Анна запускает головокружительную и трагическую череду событий в жизни своих друзей и знакомых. Кто за этим стоит? …
Рейтинг MPAA: Рейтинг NC-17 (Лица, не достигшие 17 лет, на фильм не допускаются)
Мировая премьера: 28 марта 2013
Премьера в России: 10 октября 2013, «Экспонента»
Бюджет: €1 500 000
Изображение 4.7821488

Качество: BDRip 720
Формат: MKV
Видео кодек: H264 (AVC)
Видео: 1280x534 24fps 0.365
Аудио #1: RUS: DTS 48000Hz 6ch 1 510 Kbps
Аудио #2: RUS: AC3 48000Hz 6ch 448 Kbps
MediaInfo
General
Unique ID : 227840045134956424007051797440133777089 (0xAB686584031ABA51905BD1958C2EC6C1)
Complete name : K:\Torrent\Android..mkv
Format : Matroska
Format version : Version 2
File size : 4.37 GiB
Duration : 1h 18mn
Overall bit rate : 7 947 Kbps
Encoded date : UTC 2013-12-28 09:46:49
Writing application : mkvmerge v5.8.0 ('No Sleep / Pillow') built on Sep 2 2012 15:37:04
Writing library : libebml v1.2.3 + libmatroska v1.3.0
Attachment : Yes

Video
ID : 1
Format : AVC
Format/Info : Advanced Video Codec
Format profile : High@L4.1
Format settings, CABAC : Yes
Format settings, ReFrames : 9 frames
Codec ID : V_MPEG4/ISO/AVC
Duration : 1h 18mn
Bit rate : 5 992 Kbps
Width : 1 280 pixels
Height : 534 pixels
Display aspect ratio : 2.40:1
Frame rate : 24.000 fps
Color space : YUV
Chroma subsampling : 4:2:0
Bit depth : 8 bits
Scan type : Progressive
Bits/(Pixel*Frame) : 0.365
Stream size : 3.21 GiB (73%)
Writing library : x264 core 138 r2358 9e941d1
Encoding settings : cabac=1 / ref=9 / deblock=1:-3:-3 / analyse=0x3:0x113 / me=umh / subme=11 / psy=1 / psy_rd=1.00:0.10 / mixed_ref=1 / me_range=32 / chroma_me=1 / trellis=2 / 8x8dct=1 / cqm=0 / deadzone=21,11 / fast_pskip=0 / chroma_qp_offset=-3 / threads=2 / lookahead_threads=1 / sliced_threads=0 / nr=0 / decimate=0 / interlaced=0 / bluray_compat=0 / constrained_intra=0 / bframes=8 / b_pyramid=2 / b_adapt=2 / b_bias=0 / direct=3 / weightb=1 / open_gop=0 / weightp=2 / keyint=240 / keyint_min=24 / scenecut=40 / intra_refresh=0 / rc_lookahead=40 / rc=2pass / mbtree=0 / bitrate=5992 / ratetol=1.0 / qcomp=0.60 / qpmin=0 / qpmax=69 / qpstep=4 / cplxblur=20.0 / qblur=0.5 / vbv_maxrate=50000 / vbv_bufsize=62500 / nal_hrd=none / ip_ratio=1.40 / pb_ratio=1.30 / aq=1:1.00
Language : English
Default : Yes
Forced : No

Audio #1
ID : 2
Format : DTS
Format/Info : Digital Theater Systems
Codec ID : A_DTS
Duration : 1h 18mn
Bit rate mode : Constant
Bit rate : 1 510 Kbps
Channel(s) : 6 channels
Channel positions : Front: L C R, Side: L R, LFE
Sampling rate : 48.0 KHz
Bit depth : 24 bits
Compression mode : Lossy
Stream size : 850 MiB (19%)
Title : DTS
Language : Russian
Default : Yes
Forced : No

Audio #2
ID : 3
Format : AC-3
Format/Info : Audio Coding 3
Mode extension : CM (complete main)
Codec ID : A_AC3
Duration : 1h 18mn
Bit rate mode : Constant
Bit rate : 448 Kbps
Channel(s) : 6 channels
Channel positions : Front: L C R, Side: L R, LFE
Sampling rate : 48.0 KHz
Bit depth : 16 bits
Compression mode : Lossy
Stream size : 252 MiB (6%)
Title : AC3
Language : Russian
Default : No
Forced : No

Menu
00:00:00.000 : :Chapter 01
00:00:55.583 : :Chapter 02
00:09:00.667 : :Chapter 03
00:17:41.167 : :Chapter 04
00:29:03.458 : :Chapter 05
00:37:22.708 : :Chapter 06
00:44:48.875 : :Chapter 07
00:54:03.792 : :Chapter 08
01:06:10.500 : :Chapter 09


Свернуть

Скриншоты
Изображение
Изображение
Изображение
Свернуть
 Шурка нравится это.
Не в сети
Профиль  
 Добавлено: 2014-01-01 07:39 (спустя 17 часов)
Аватара пользователя
Стаж: 7 лет 5 месяцев
Возраст: 26
Сообщений: 147
Спасибок: 9
Пасип, посмотрим что за Андроид :)
Не в сети
Профиль  
 Добавлено: 2014-01-01 23:34 (спустя 15 часов)
Аватара пользователя
Стаж: 7 лет 2 месяца
Сообщений: 37
:-P это моя аватарка пёс))))))))))))))))))))))))

Добавлено спустя 42 секунды:
:-D :-D :-D :-D :-D :-D :-D :-D
Не в сети
Профиль  
 Добавлено: 2014-01-09 01:22 (спустя 7 дней)
Аватара пользователя
Стаж: 7 лет 8 месяцев
Сообщений: 35
Лайков: 1
лажа надуманная!еле досмотрел перематывая!
Не в сети
Профиль  
 Добавлено: 2014-01-09 09:38 (спустя 8 часов)
Стаж: 9 лет 1 месяц
Сообщений: 171
Спасибок: 19
В конце разрядилась батарея?
Не в сети
Профиль  
 Добавлено: 2014-01-13 21:07 (спустя 4 дня)
Аватара пользователя
Стаж: 8 лет 11 месяцев
Сообщений: 74
Спасибок: 8
да, фильм тупой
Не в сети
Профиль  
Начать новую темуОтветить на тему  [ Сообщений: 6 ] 
Вы не можете начинать темы
Вы не можете отвечать на сообщения
Вы не можете редактировать свои сообщения
Вы не можете удалять свои сообщения