Правила форума

  • В этом разделе создание новых тем Запрещено.
  • Для создания новых тем пользуйтесь Корневым разделом DVD и HD фильмы.
Начать новую темуОтветить на тему  [ Сообщений: 5 ] 
Торрент файл
Размер: 10.73 GB • Зарегистрирован: 3 года 7 месяцев • Статус: Проверено
Скачан: 198 раз • Желающих скачать: 0 • Поблагодарили: 39 раз
 Раздают: 0  |  0 KB/s  ]   Качают: 0  |  0 KB/s  ] 
 Полного источника не было 18 дней 
Сообщения
 Добавлено: 2013-04-20 16:39
Руководитель релиз-группы
Аватара пользователя
Стаж: 7 лет 5 месяцев
Возраст: 31
Сообщений: 3406
Спасибок: 46729
Лайков: 5
Изображение

Ангел-хранитель
Schutzengel


Год выпуска: 2012
Страна: Германия
Жанр: триллер
Продолжительность: 02:13:26
Перевод: Профессиональный (полное дублирование) [лицензия]
Режиссер: Тиль Швайгер
Сценарий: Стефен Бутчард, Пол Морис, Тиль Швайгер
Продюсер: Пол Морис, Тиль Швайгер, Томас Циклер, Юлия Эцельмюллер, Вилли Гейке
Оператор: Адриан Кранадж
Композитор: Мартин Тодшаров
В ролях: Тиль Швайгер, Луна Швайгер, Каролине Шух, Мориц Бляйбтрой, Хайнер Лаутербах, Райнер Бок, Херберт Кнауп, Костя Улльман, Ханна Херцшпрунг, Тим Вильде, Катарина Шюттлер, Аксель Штайн
Описание: Нина, молодая девушка - сирота, неожиданно становится свидетелем убийства, совершенного богатым предпринимателем. Теперь она - большая проблема на пути бизнесмена. Девушке негде укрыться, некуда бежать. Ее спасением становится бывший солдат Макс. Отныне он ее ангел-хранитель. Чтобы остаться в живых, им нужно срочно исчезнуть...
Изображение
Раздача группы: Изображение
Качество: BDRip, 1080p
Формат: MKV
Видео: MPEG-4 AVC, 10000 Кбит/с, 1916x804
Аудио #1: DTS, 6 ch, 768 Kbps Russian
Аудио #2: DTS, 6 ch, 768 Kbps Deutsch
Субтитры: русские, английские
mediainfo
    Format : Matroska
    Format version : Version 2
    File size : 10.7 GiB
    Duration : 2h 13mn
    Overall bit rate : 11.5 Mbps
    Movie name : Schutzengel (2012)
    Encoded date : UTC 2013-04-19 18:08:52
    Writing application : mkvmerge v3.4.0 ('Rapunzel') сборка от May 15 2010 09:38:20
    Writing library : libebml v0.8.0 + libmatroska v0.9.0

    Video
    ID : 1
    Format : AVC
    Format/Info : Advanced Video Codec
    Format profile : High@L4.1
    Format settings, CABAC : Yes
    Format settings, ReFrames : 5 frames
    Codec ID : V_MPEG4/ISO/AVC
    Duration : 2h 13mn
    Bit rate : 10 000 Kbps
    Width : 1 916 pixels
    Height : 804 pixels
    Display aspect ratio : 2.40:1
    Frame rate : 24.000 fps
    Color space : YUV
    Chroma subsampling : 4:2:0
    Bit depth : 8 bits
    Scan type : Progressive
    Bits/(Pixel*Frame) : 0.270
    Stream size : 9.11 GiB (85%)
    Title : Schutzengel (2012)
    Writing library : x264 core 130 r2273 b3065e6
    Encoding settings : cabac=1 / ref=5 / deblock=1:-3:-3 / analyse=0x3:0x113 / me=umh / subme=11 / psy=1 / psy_rd=1.05:0.15 / mixed_ref=1 / me_range=48 / chroma_me=1 / trellis=2 / 8x8dct=1 / cqm=0 / deadzone=21,11 / fast_pskip=0 / chroma_qp_offset=-3 / threads=16 / lookahead_threads=2 / sliced_threads=0 / nr=0 / decimate=0 / interlaced=0 / bluray_compat=0 / constrained_intra=0 / bframes=8 / b_pyramid=2 / b_adapt=2 / b_bias=0 / direct=3 / weightb=1 / open_gop=0 / weightp=2 / keyint=240 / keyint_min=24 / scenecut=40 / intra_refresh=0 / rc_lookahead=240 / rc=2pass / mbtree=1 / bitrate=10000 / ratetol=1.0 / qcomp=0.70 / qpmin=0 / qpmax=69 / qpstep=4 / cplxblur=20.0 / qblur=0.5 / vbv_maxrate=50000 / vbv_bufsize=62500 / nal_hrd=none / ip_ratio=1.30 / aq=1:0.75
    Language : German
    Default : Yes
    Forced : No

    Audio #1
    ID : 2
    Format : DTS
    Format/Info : Digital Theater Systems
    Codec ID : A_DTS
    Duration : 2h 13mn
    Bit rate mode : Constant
    Bit rate : 755 Kbps
    Channel(s) : 6 channels
    Channel positions : Front: L C R, Side: L R, LFE
    Sampling rate : 48.0 KHz
    Bit depth : 24 bits
    Compression mode : Lossy
    Stream size : 720 MiB (7%)
    Title : Dub
    Language : Russian
    Default : Yes
    Forced : Yes

    Audio #2
    ID : 3
    Format : DTS
    Format/Info : Digital Theater Systems
    Codec ID : A_DTS
    Duration : 2h 13mn
    Bit rate mode : Constant
    Bit rate : 755 Kbps
    Channel(s) : 6 channels
    Channel positions : Front: L C R, Side: L R, LFE
    Sampling rate : 48.0 KHz
    Bit depth : 24 bits
    Compression mode : Lossy
    Stream size : 720 MiB (7%)
    Title : Original
    Language : German
    Default : No
    Forced : No

    Text #1
    ID : 4
    Format : UTF-8
    Codec ID : S_TEXT/UTF8
    Codec ID/Info : UTF-8 Plain Text
    Language : Russian
    Default : No
    Forced : No

    Text #2
    ID : 5
    Format : UTF-8
    Codec ID : S_TEXT/UTF8
    Codec ID/Info : UTF-8 Plain Text
    Language : English
    Default : No
    Forced : No

    Menu
    00:00:00.000 : en:Chapter 01
    00:01:36.583 : en:Chapter 02
    00:12:10.083 : en:Chapter 03
    00:23:38.250 : en:Chapter 04
    00:38:14.083 : en:Chapter 05
    00:52:10.250 : en:Chapter 06
    01:10:07.875 : en:Chapter 07
    01:27:55.416 : en:Chapter 08
    01:50:53.916 : en:Chapter 09
    02:13:26.291 : en:Chapter 10
Свернуть
Скриншоты

Изображение

Изображение

Изображение

Изображение
Свернуть
Не в сети
Профиль  
 Добавлено: 2013-04-21 00:41 (спустя 8 часов)
Аватара пользователя
Стаж: 8 лет 9 месяцев
Сообщений: 1170
Спасибок: 1294
Лайков: 7
хм, время стоит тратить?
Не в сети
Профиль  
 Добавлено: 2013-04-21 13:40 (спустя 12 часов)
Стаж: 8 лет 9 месяцев
Сообщений: 34
мне нравятся все фильмы тиля швайгера! не один стремный не видел, везде сюжет очень закручен и непредсказуем! качаю)))) спасибо!
Не в сети
Профиль  
 Добавлено: 2013-04-23 08:40 (спустя 1 день 19 часов)
Стаж: 5 лет 3 месяца
Сообщений: 150
Лайков: 2
Не стоит тратить!!!Фильм полный отстой!!!Если не верите посмотрите первые пять минут.И сами всё поймёте.
Не в сети
Профиль  
 Добавлено: 2013-04-29 08:40 (спустя 5 дней)
Стаж: 8 лет 8 месяцев
Сообщений: 6

Gospik:

мне нравятся все фильмы тиля швайгера! не один стремный не видел, везде сюжет очень закручен и непредсказуем! качаю)))) спасибо!

:co_ol:
Не в сети
Профиль  
Начать новую темуОтветить на тему  [ Сообщений: 5 ] 
Вы не можете начинать темы
Вы не можете отвечать на сообщения
Вы не можете редактировать свои сообщения
Вы не можете удалять свои сообщения