Правила форума

  • В этом разделе создание новых тем Запрещено.
  • Для создания новых тем пользуйтесь Корневым разделом DVD и HD фильмы.
Начать новую темуОтветить на тему  [ Сообщений: 2 ] 
Торрент файл
Размер: 4.63 GB • Зарегистрирован: 2 года 8 месяцев • Статус: T Временный релиз
Скачан: 5 раз • Желающих скачать: 0 • Поблагодарили: 4 раза
 Раздают: 0  |  0 KB/s  ]   Качают: 0  |  0 KB/s  ] 
 Полного источника не было 7 месяцев 
Сообщения
 Добавлено: 2014-04-01 13:34
Книголюб
Аватара пользователя
Стаж: 7 лет 2 месяца
Сообщений: 2823
Спасибок: 48826
Лайков: 73
Ангел неба
Angel of the Skies

«Never before, was so much owed to so few, by so many»

Изображение


Год выпуска: 2013
Страна: ЮАР
Жанр: военный
Продолжительность: 01:38:02
Перевод: Авторский одноголосый ([А.Алексеев])

Режиссёр: Кристофер-Ли дос Сантос
В ролях: Николас Ван Дер Бийл, Брэд Бэкхаус, Адам Бойс, Лилли Клер, Райан Дитманн, Джейсон Гланвиль, Дэвид Джеймс, Дебора Леттнер, Джеко Мюллер
Описание: Когда началась Вторая мировая война, молодой пилот Эрл Кирк, будучи преисполнен решимости выполнить свой воинский долг, отправляется служить в британские королевские ВВС. Дома его ждет невеста. В одном из воздушных боев бомбардировщик Кирка сбивают, но экипажу удается спастись. Они оказываются на оккупированной фашистами территории. Преследуемые по пятам отрядом СС, Кирк и его люди должны найти способ вернуться назад к своим.
Мировая премьера: 21 июля 2013

Качество: BDRip 720p
Формат: MKV
Видео кодек: H.264
Аудио кодек: AC3 (Dolby Digital)
Видео: 1280x544 23.976fps 4 598 Kbps
Аудио #1: Russian: 48000Hz 6ch 384kbps
Аудио #2: English: 48000Hz 6ch 1 509 Kbps
MediaInfo
General
Unique ID : 211256199161804113531521241476305739195 (0x9EEE76C811BD89CCB38CD33B32735DBB)
Complete name : K:\Torrent\Angel of the Skies.mkv
Format : Matroska
Format version : Version 4 / Version 2
File size : 4.63 GiB
Duration : 1h 42mn
Overall bit rate : 6 492 Kbps
Movie name : Release Group CINEMANIA
Encoded date : UTC 2014-03-30 08:52:48
Writing application : mkvmerge v6.8.0 ('Theme for Great Cities') 64bit built on Mar 2 2014 21:34:26
Writing library : libebml v1.3.0 + libmatroska v1.4.1

Video
ID : 1
Format : AVC
Format/Info : Advanced Video Codec
Format profile : High@L4.1
Format settings, CABAC : Yes
Format settings, ReFrames : 12 frames
Codec ID : V_MPEG4/ISO/AVC
Bit rate : 4 598 Kbps
Width : 1 280 pixels
Height : 544 pixels
Display aspect ratio : 2.35:1
Frame rate mode : Variable
Original frame rate : 23.976 fps
Color space : YUV
Chroma subsampling : 4:2:0
Bit depth : 8 bits
Scan type : Progressive
Bits/(Pixel*Frame) : 0.275
Title : Release Group CINEMANIA
Writing library : x264 core 135 r2345 f0c1c53
Encoding settings : cabac=1 / ref=12 / deblock=1:-3:-3 / analyse=0x3:0x113 / me=umh / subme=10 / psy=1 / psy_rd=1.00:0.05 / mixed_ref=1 / me_range=32 / chroma_me=1 / trellis=2 / 8x8dct=1 / cqm=0 / deadzone=21,11 / fast_pskip=0 / chroma_qp_offset=-2 / threads=12 / lookahead_threads=1 / sliced_threads=0 / nr=0 / decimate=1 / interlaced=0 / bluray_compat=0 / constrained_intra=0 / bframes=4 / b_pyramid=2 / b_adapt=2 / b_bias=0 / direct=3 / weightb=1 / open_gop=0 / weightp=2 / keyint=250 / keyint_min=23 / scenecut=40 / intra_refresh=0 / rc=2pass / mbtree=0 / bitrate=4598 / ratetol=1.0 / qcomp=0.70 / qpmin=0 / qpmax=69 / qpstep=4 / cplxblur=20.0 / qblur=0.5 / ip_ratio=1.40 / pb_ratio=1.30 / aq=2:1.00
Language : English
Default : Yes
Forced : No

Audio #1
ID : 2
Format : AC-3
Format/Info : Audio Coding 3
Mode extension : CM (complete main)
Format settings, Endianness : Big
Codec ID : A_AC3
Duration : 1h 42mn
Bit rate mode : Constant
Bit rate : 384 Kbps
Channel(s) : 6 channels
Channel positions : Front: L C R, Side: L R, LFE
Sampling rate : 48.0 KHz
Bit depth : 16 bits
Compression mode : Lossy
Stream size : 280 MiB (6%)
Title : А. Алексеев
Language : Russian
Default : Yes
Forced : Yes

Audio #2
ID : 3
Format : DTS
Format/Info : Digital Theater Systems
Mode : 16
Format settings, Endianness : Big
Codec ID : A_DTS
Duration : 1h 42mn
Bit rate mode : Constant
Bit rate : 1 509 Kbps
Channel(s) : 6 channels
Channel positions : Front: L C R, Side: L R, LFE
Sampling rate : 48.0 KHz
Bit depth : 24 bits
Compression mode : Lossy
Stream size : 1.08 GiB (23%)
Language : English
Default : No
Forced : No

Text
ID : 4
Format : UTF-8
Codec ID : S_TEXT/UTF8
Codec ID/Info : UTF-8 Plain Text
Language : English
Default : No
Forced : No

Menu
00:00:00.000 : en:00:00:00.000
00:08:15.078 : en:00:08:15.078
00:18:51.213 : en:00:18:51.213
00:26:40.641 : en:00:26:40.641
00:35:24.789 : en:00:35:24.789
00:45:26.807 : en:00:45:26.807
00:53:51.895 : en:00:53:51.895
01:05:37.058 : en:01:05:37.058
01:13:42.251 : en:01:13:42.251
01:23:47.439 : en:01:23:47.439
01:32:25.165 : en:01:32:25.165
01:38:34.575 : en:01:38:34.575


Свернуть

Скриншоты
Изображение
Изображение
Изображение
Изображение
Свернуть
Не в сети
Профиль  
 Добавлено: 2014-04-01 21:25 (спустя 7 часов)
Музыкоед
Аватара пользователя
Стаж: 7 лет 4 месяца
Сообщений: 2111
Лайков: 466
И каков он, синематограф в ЮАР? Как там у них с политкорректностью, кстати говоря? Среди эсесовцев негры и гомосеки замечены?
Не в сети
Профиль  
Начать новую темуОтветить на тему  [ Сообщений: 2 ] 
Вы не можете начинать темы
Вы не можете отвечать на сообщения
Вы не можете редактировать свои сообщения
Вы не можете удалять свои сообщения