Правила форума

  • В этом разделе создание новых тем Запрещено.
  • Для создания новых тем пользуйтесь Корневым разделом DVD и HD фильмы.
Начать новую темуОтветить на тему  [ Сообщений: 2 ] 
Торрент файл
Размер: 7.98 GB • Зарегистрирован: 3 года 10 месяцев • Статус: Проверено
Скачан: 85 раз • Желающих скачать: 0 • Поблагодарили: 24 раза
 Раздают: 0  |  0 KB/s  ]   Качают: 0  |  0 KB/s  ] 
 Полного источника не было 2 года 2 месяца 
Сообщения
 Добавлено: 2013-02-05 19:57
Модератор релиз-группы
Аватара пользователя
Стаж: 6 лет 5 месяцев
Возраст: 25
Сообщений: 622
Спасибок: 10257
Лайков: 7
Анна Каренина / Anna Karenina

Изображение


Год выпуска: 2012
Страна: Великобритания
Жанр: Драма, экранизация
Продолжительность: 02:09:32
Перевод: Профессиональный (полное дублирование)
Субтитры: Русские, Английские

Режиссёр: Джо Райт
В ролях: Кира Найтли, Джуд Лоу, Аарон Джонсон, Келли Макдоналд, Мэттью Макфейден, Домналл Глисон, Рут Уилсон, Алисия Викандер, Оливия Уильямс, Эмили Уотсон, Эрик МакЛеннан, Тео Мориссей, Сесиль Мориссей, Фрея Галпин, Октавия Мориссей, Беатрис Мориссей, Гуро Нагелус Шия, Аруан Галиева, Люк Ньюберри, Майкл Шэйффер, Пип Торренс, Сюзанна Лотар, Александра Роач, Генри Ллойд-Хьюз, Дэвид Уилмот, Танништа Чаттерджи, Ник Холдер, Баффи Дэвис, Эрос Влахос, Сэм Кокс, Холлидей Грейнджер, Мишель Докери, Эмиральд Феннел, Томас Хоус, Рафаэль Персонас, Билл Скарсгард, Кара Делевинь, Гера Хилмарсдоттир, Кеннет Коллар
Описание: По знаменитому одноименному роману Льва Толстого. История о трагичной любви замужней дамы Анны Карениной к молодому офицеру графу Вронскому на фоне любви и счастливой семейной жизни Константина Левина и Кити Щербацкой.
Изображение 7,3/10 (16,011 votes)
Изображение 6,9/10 (14,335 votes)
Раздача группы: Изображение
Качество: BDRip (720p)
Видео: MPEG-4 AVC, 7100 Кбит/с, 1280x536, 23.976 кадр/с
Аудио: Русский (AC3, 6 ch, 384 Кбит/c), английский (DTS, 6 ch, 1510 Кбит/c)
Размер: 7.98 ГБ
Субтитры: Русские, Английские
Изображение
BDInfo
Общее
Уникальный идентификатор : 198491247797056104492407933450051417230 (0x95540616A66FAC6EAEFB40232380748E)
Полное имя : N:\Anna.Karenina.2012.x264.BDRip(720p).mkv
Формат : Matroska
Версия формата : Version 2
Размер файла : 7,98 Гбайт
Продолжительность : 2 ч. 9 м.
Общий поток : 8821 Кбит/сек
Название фильма : --SCHUMAHER--
Дата кодирования : UTC 2013-02-05 12:49:06
Программа кодирования : mkvmerge v5.8.0 ('No Sleep / Pillow') built on Sep 2 2012 15:37:04
Библиотека кодирования : libebml v1.2.3 + libmatroska v1.3.0

Видео
Идентификатор : 1
Формат : AVC
Формат/Информация : Advanced Video Codec
Профиль формата : High@L4.1
Параметр CABAC формата : Да
Параметр ReFrames формата : 5 кадров
Идентификатор кодека : V_MPEG4/ISO/AVC
Продолжительность : 2 ч. 9 м.
Битрейт : 6752 Кбит/сек
Номинальный битрейт : 7100 Кбит/сек
Ширина : 1280 пикселей
Высота : 536 пикселей
Соотношение сторон : 2,40:1
Режим частоты кадров : Постоянный
Частота кадров : 23,976 кадра/сек
Цветовое пространство : YUV
Субдискретизация насыщенности : 4:2:0
Битовая глубина : 8 бит
Тип развёртки : Прогрессивная
Бит/(Пиксели*Кадры) : 0.410
Размер потока : 6,11 Гбайт (77%)
Библиотека кодирования : x264 core 129 r2230 1cffe9f
Настройки программы : cabac=1 / ref=5 / deblock=1:0:0 / analyse=0x3:0x113 / me=hex / subme=7 / psy=1 / psy_rd=1.00:0.00 / mixed_ref=1 / me_range=16 / chroma_me=1 / trellis=1 / 8x8dct=1 / cqm=0 / deadzone=21,11 / fast_pskip=1 / chroma_qp_offset=-2 / threads=16 / lookahead_threads=2 / sliced_threads=0 / nr=0 / decimate=1 / interlaced=0 / bluray_compat=0 / constrained_intra=0 / bframes=3 / b_pyramid=2 / b_adapt=1 / b_bias=0 / direct=1 / weightb=1 / open_gop=0 / weightp=2 / keyint=240 / keyint_min=23 / scenecut=40 / intra_refresh=0 / rc_lookahead=50 / rc=abr / mbtree=1 / bitrate=7100 / ratetol=1.0 / qcomp=0.60 / qpmin=0 / qpmax=69 / qpstep=4 / ip_ratio=1.40 / aq=1:1.00
Язык : English
Default : Да
Forced : Да

Аудио #1
Идентификатор : 2
Формат : AC-3
Формат/Информация : Audio Coding 3
Расширение режима : CM (complete main)
Параметр Endianness формата : Big
Идентификатор кодека : A_AC3
Продолжительность : 2 ч. 9 м.
Вид битрейта : Постоянный
Битрейт : 384 Кбит/сек
Каналы : 6 каналов
Расположение каналов : Front: L C R, Side: L R, LFE
Частота : 48,0 КГц
Битовая глубина : 16 бит
Метод сжатия : С потерями
Размер потока : 356 Мбайт (4%)
Язык : Russian
Default : Да
Forced : Да

Аудио #2
Идентификатор : 3
Формат : DTS
Формат/Информация : Digital Theater Systems
Режим : 16
Параметр Endianness формата : Big
Идентификатор кодека : A_DTS
Продолжительность : 2 ч. 9 м.
Вид битрейта : Постоянный
Битрейт : 1509 Кбит/сек
Каналы : 6 каналов
Расположение каналов : Front: L C R, Side: L R, LFE
Частота : 48,0 КГц
Битовая глубина : 24 бит
Метод сжатия : С потерями
Размер потока : 1,37 Гбайт (17%)
Язык : English
Default : Нет
Forced : Нет

Текст #1
Идентификатор : 4
Формат : UTF-8
Идентификатор кодека : S_TEXT/UTF8
Идентификатор кодека/Информация : UTF-8 Plain Text
Язык : Russian
Default : Нет
Forced : Нет

Текст #2
Идентификатор : 5
Формат : UTF-8
Идентификатор кодека : S_TEXT/UTF8
Идентификатор кодека/Информация : UTF-8 Plain Text
Язык : English
Default : Нет
Forced : Нет

Меню
00:00:00.000 : en:00:00:00.000
00:05:36.294 : en:00:05:36.294
00:11:42.076 : en:00:11:42.076
00:19:59.156 : en:00:19:59.156
00:25:26.900 : en:00:25:26.900
00:32:40.750 : en:00:32:40.750
00:39:52.056 : en:00:39:52.056
00:46:59.108 : en:00:46:59.108
00:54:00.362 : en:00:54:00.362
01:00:36.258 : en:01:00:36.258
01:07:13.529 : en:01:07:13.529
01:14:52.071 : en:01:14:52.071
01:22:30.070 : en:01:22:30.070
01:27:00.549 : en:01:27:00.549
01:31:49.379 : en:01:31:49.379
01:36:12.976 : en:01:36:12.976
01:42:42.907 : en:01:42:42.907
01:47:57.971 : en:01:47:57.971
01:55:04.523 : en:01:55:04.523
02:01:45.924 : en:02:01:45.924
Свернуть

Скриншоты
Изображение
Изображение
Изображение
Изображение
Изображение
Изображение
Свернуть
_________________
Изображение
Не в сети
Профиль  
 Добавлено: 2013-06-14 19:59 (спустя 4 месяца 9 дней)
Стаж: 7 лет
Сообщений: 7
скорости бы.............. :(
Не в сети
Профиль  
Начать новую темуОтветить на тему  [ Сообщений: 2 ] 
Вы не можете начинать темы
Вы не можете отвечать на сообщения
Вы не можете редактировать свои сообщения
Вы не можете удалять свои сообщения