Правила форума

  • В этом разделе создание новых тем Запрещено.
  • Для создания новых тем пользуйтесь Корневым разделом DVD и HD фильмы.
Начать новую темуОтветить на тему  [ Сообщений: 5 ] 
Торрент файл
Размер: 7.76 GB • Зарегистрирован: 3 года 9 месяцев • Статус: Проверено
Скачан: 116 раз • Желающих скачать: 0 • Поблагодарили: 36 раз
 Раздают: 0  |  0 KB/s  ]   Качают: 0  |  0 KB/s  ] 
 Полного источника не было 1 год 10 месяцев 
Сообщения
 Добавлено: 2013-02-09 22:41
Книголюб
Аватара пользователя
Стаж: 7 лет 2 месяца
Сообщений: 2823
Спасибок: 48826
Лайков: 73
Анна Каренина
Anna Karenina

Изображение


Год выпуска: 2012
Страна: Великобритания
Жанр: Драма
Продолжительность: 02:09:15
Перевод: Профессиональный (дубляж)

Режиссёр: Джо Райт
В ролях: Кира Найтли, Джуд Лоу, Аарон Джонсон, Келли Макдоналд, Мэтью Макфейден, Оливия Уильямс, Мишель Докери, Эмили Уотсон, Холли Грэйнджер, Рут Уилсон
Описание: Встречая приехавшую из Петербурга мать, молодой блистательный офицер граф Вронский знакомится с женой влиятельного петербургского чиновника Анной Карениной. Огонь страсти вспыхивает мгновенно, но их любовь шокирует высшее общество. В мире, где правят предрассудки и стереотипы, ей придётся сделать поистине непростой выбор между семьёй и всепоглощающей страстью…
Рейтинг MPAA: Рейтинг R (Подростки до 17 лет допускаются на фильм только в сопровождении одного из родителей)
Мировая премьера: 03.01.2013
Изображение 7.28417 592

Качество: BDRip 1080p
Формат: MKV
Видео кодек: H.264
Аудио кодек: AC3 (Dolby Digital)
Видео: 1920x800 23.976fp 7 300 Kbps
Аудио #1:Rus:48000Hz 6ch 640 Kbps
Аудио #:Eng:48000Hz 6c 640 Kbps
MediaInfo
General
Unique ID : 239751273036007895539424984034438977281 (0xB45E6A6466B532B98B9BF7E54FDE9701)
Complete name : K:\Torrent1\Anna.Karenina..mkv
Format : Matroska
Format version : Version 2
File size : 7.76 GiB
Duration : 2h 9mn
Overall bit rate : 8 579 Kbps
Movie name : Анна Каренина / Anna Karenina (2012)
Encoded date : UTC 2013-02-09 08:03:20
Writing application : mkvmerge v5.8.0 ('No Sleep / Pillow') built on Sep 2 2012 15:37:04
Writing library : libebml v1.2.3 + libmatroska v1.3.0

Video
ID : 1
Format : AVC
Format/Info : Advanced Video Codec
Format profile : High@L4.1
Format settings, CABAC : Yes
Format settings, ReFrames : 5 frames
Codec ID : V_MPEG4/ISO/AVC
Duration : 2h 9mn
Bit rate : 7 300 Kbps
Width : 1 920 pixels
Height : 800 pixels
Display aspect ratio : 2.40:1
Frame rate : 23.976 fps
Color space : YUV
Chroma subsampling : 4:2:0
Bit depth : 8 bits
Scan type : Progressive
Bits/(Pixel*Frame) : 0.198
Stream size : 6.45 GiB (83%)
Title : Release by AlexKa
Writing library : x264 core 129 r2245 bc13772
Encoding settings : cabac=1 / ref=5 / deblock=1:-3:-3 / analyse=0x3:0x133 / me=umh / subme=10 / psy=1 / psy_rd=1.10:0.00 / mixed_ref=1 / me_range=32 / chroma_me=1 / trellis=2 / 8x8dct=1 / cqm=0 / deadzone=21,11 / fast_pskip=0 / chroma_qp_offset=-2 / threads=12 / lookahead_threads=2 / sliced_threads=0 / nr=0 / decimate=0 / interlaced=0 / bluray_compat=0 / constrained_intra=0 / bframes=5 / b_pyramid=2 / b_adapt=2 / b_bias=0 / direct=3 / weightb=1 / open_gop=0 / weightp=2 / keyint=240 / keyint_min=23 / scenecut=40 / intra_refresh=0 / rc=2pass / mbtree=0 / bitrate=7300 / ratetol=1.0 / qcomp=0.60 / qpmin=0 / qpmax=69 / qpstep=4 / cplxblur=20.0 / qblur=0.5 / ip_ratio=1.40 / pb_ratio=1.30 / aq=1:0.80
Language : English
Default : Yes
Forced : No

Audio #1
ID : 2
Format : AC-3
Format/Info : Audio Coding 3
Mode extension : CM (complete main)
Codec ID : A_AC3
Duration : 2h 9mn
Bit rate mode : Constant
Bit rate : 640 Kbps
Channel(s) : 6 channels
Channel positions : Front: L C R, Side: L R, LFE
Sampling rate : 48.0 KHz
Bit depth : 16 bits
Compression mode : Lossy
Stream size : 593 MiB (7%)
Title : Rus
Language : Russian
Default : Yes
Forced : No

Audio #2
ID : 3
Format : AC-3
Format/Info : Audio Coding 3
Mode extension : CM (complete main)
Codec ID : A_AC3
Duration : 2h 9mn
Bit rate mode : Constant
Bit rate : 640 Kbps
Channel(s) : 6 channels
Channel positions : Front: L C R, Side: L R, LFE
Sampling rate : 48.0 KHz
Bit depth : 16 bits
Compression mode : Lossy
Stream size : 593 MiB (7%)
Title : Eng
Language : English
Default : No
Forced : No

Text #1
ID : 4
Format : UTF-8
Codec ID : S_TEXT/UTF8
Codec ID/Info : UTF-8 Plain Text
Title : Rus
Language : Russian
Default : No
Forced : No

Text #2
ID : 5
Format : UTF-8
Codec ID : S_TEXT/UTF8
Codec ID/Info : UTF-8 Plain Text
Title : Eng
Language : English
Default : No
Forced : No

Menu
00:00:00.000 : :Chapter 01
00:05:36.294 : :Chapter 02
00:11:42.076 : :Chapter 03
00:19:59.156 : :Chapter 04
00:25:26.900 : :Chapter 05
00:32:40.750 : :Chapter 06
00:39:52.056 : :Chapter 07
00:46:59.107 : :Chapter 08
00:54:00.362 : :Chapter 09
01:00:36.257 : :Chapter 10
01:07:13.529 : :Chapter 11
01:14:52.070 : :Chapter 12
01:22:30.070 : :Chapter 13
01:27:00.548 : :Chapter 14
01:31:49.378 : :Chapter 15
01:36:12.975 : :Chapter 16
01:42:42.906 : :Chapter 17
01:47:57.971 : :Chapter 18
01:55:04.522 : :Chapter 19
02:01:45.923 : :Chapter 20
02:09:32.347 : :Chapter 21


Свернуть

Скриншоты
Изображение
Изображение
Изображение
Изображение
Свернуть


Последний раз редактировалось coldun 2013-02-12 16:32, всего редактировалось 1 раз.
Не в сети
Профиль  
 Добавлено: 2013-02-10 13:25 (спустя 14 часов)
Модератор
Аватара пользователя
Стаж: 8 лет 11 месяцев
Сообщений: 516
Спасибок: 26888
Лайков: 1
Для DVD и HD-разделов необходимы развернутые технические данные:
Для HD: Отчет MediaInfo или BDInfo (под спойлером)
Добавьте скриншоты.
Подробные инструкции: [Инструкция] Как сделать скриншоты с видео
Для HD и HQRip-ов необходимы скриншоты в формате PNG, для остальных форматов PNG так же рекомендуется.
Не в сети
Профиль  
 Добавлено: 2013-02-26 13:05 (спустя 15 дней)
Аватара пользователя
Стаж: 4 года 11 месяцев
Возраст: 48
Сообщений: 90
Спасибок: 7
Скачиваю, потому что прочёл эту рецензию:
http://www.itar-tass.com/c289/659896.html
_________________
"Когда я умру, на мою могилу нанесут много мусора, но ветер времени безжалостно сметет его." И.Сталин
Не в сети
Профиль  
 Добавлено: 2013-05-23 12:41 (спустя 2 месяца 24 дня)
Стаж: 4 года 11 месяцев
Сообщений: 6
спасибо
Не в сети
Профиль  
 Добавлено: 2013-06-02 14:57 (спустя 10 дней)
Стаж: 6 лет 9 месяцев
Сообщений: 33
Спасибок: 3
5 из 10
Не в сети
Профиль  
Начать новую темуОтветить на тему  [ Сообщений: 5 ] 
Вы не можете начинать темы
Вы не можете отвечать на сообщения
Вы не можете редактировать свои сообщения
Вы не можете удалять свои сообщения