Правила форума

  • В этом разделе создание новых тем Запрещено.
  • Для создания новых тем пользуйтесь Корневым разделом DVD и HD фильмы.
Начать новую темуОтветить на тему  [ Сообщений: 2 ] 
Торрент файл
Размер: 8 GB • Зарегистрирован: 4 года 11 месяцев • Статус: Проверено
Скачан: 128 раз • Желающих скачать: 0 • Поблагодарили: 26 раз
 Раздают: 0  |  0 KB/s  ]   Качают: 0  |  0 KB/s  ] 
 Полного источника не было 3 года 2 месяца 
Сообщения
 Добавлено: 2011-12-24 10:27
Аватара пользователя
Стаж: 4 года 11 месяцев
Сообщений: 24
Спасибок: 357
Аноним
Anonymous


«Что скрывает имя Шекспир?»

Изображение


Год выхода: 2011
Страна: Германия, Великобритания

Жанр: триллер, драма
Продолжительность: 02:10:05
Перевод: Дублированное [лицензия]

Режиссер: Роланд Эммерих
Сценарий: Джон Орлофф
Продюсер: Роланд Эммерих, Ларри Дж. Франко, Роберт Леджер, ...
Оператор: Анна Ферстер
Композитор: Харальд Клозер, Томас Ванкер

В ролях: Рис Иванс, Ванесса Редгрейв, Себастьян Фернандес-Арместо, Рейф Сполл, Дэвид Тьюлис, Эдвард Хогг, Ксавьер Сэмюэл, Сэм Рейд, Джейми Кэмпбелл Бауэр, Джоэли Ричардсон

Описание: Фильм даст совершенно неожиданный ответ на извечный вопрос: а кем же «был или не был» Шекспир, и кто на самом деле скрывается за этим всемирно известным именем великого человека?

Изображение

Изображение

Бюджет: $30 000 000
Cборы в США: $4 463 292
Cборы в мире: + $10 308 400 = $14 771 692
Cборы в России: $2 527 710

Качество BDRip 1080p R5
Формат: Mkv

Видео: MPEG4 Video (H264) 1920x816 23.98fps 6 655 Kbps
Аудио 1: DTS 48000Hz 6ch 1 510 Kbps
Аудио 2: AC-3 48000Hz 6ch 640 Kbps
Subtitle: Utf-8 (Rus)

Изображение

MediaInfo
General
Unique ID : 238583586301138013639776229170625614660 (0xB37D86FDC4297C0287D9A45E9E2B9344)
Complete name : E:\Download\Anonymous.BDRip.1080p.DVD_RG.mkv
Format : Matroska
Format version : Version 2
File size : 8.00 GiB
Duration : 2h 10mn
Overall bit rate : 8 801 Kbps
Movie name : Anonymous.BDRip.1080p.Uniongang.tv
Encoded date : UTC 2011-12-23 19:57:42
Writing application : mkvmerge v5.1.0 ('And so it goes') built on Nov 28 2011 23:58:28
Writing library : libebml v1.2.3 + libmatroska v1.3.0

Video
ID : 1
Format : AVC
Format/Info : Advanced Video Codec
Format profile : High@L4.1
Format settings, CABAC : Yes
Format settings, ReFrames : 5 frames
Codec ID : V_MPEG4/ISO/AVC
Duration : 2h 10mn
Bit rate : 6 655 Kbps
Width : 1 920 pixels
Height : 816 pixels
Display aspect ratio : 2.35:1
Frame rate : 23.976 fps
Color space : YUV
Chroma subsampling : 4:2:0
Bit depth : 8 bits
Scan type : Progressive
Bits/(Pixel*Frame) : 0.177
Stream size : 5.88 GiB (74%)
Title : Anonymous.BDRip.1080p.Uniongang.tv
Writing library : x264 core 119 r2106 07efeb4
Encoding settings : cabac=1 / ref=5 / deblock=1:-3:-3 / analyse=0x3:0x133 / me=umh / subme=9 / psy=1 / psy_rd=1.05:0.15 / mixed_ref=1 / me_range=48 / chroma_me=1 / trellis=1 / 8x8dct=1 / cqm=0 / deadzone=21,11 / fast_pskip=0 / chroma_qp_offset=-3 / threads=6 / sliced_threads=0 / nr=0 / decimate=1 / interlaced=0 / bluray_compat=0 / constrained_intra=0 / bframes=5 / b_pyramid=2 / b_adapt=2 / b_bias=0 / direct=3 / weightb=1 / open_gop=0 / weightp=2 / keyint=250 / keyint_min=23 / scenecut=40 / intra_refresh=0 / rc_lookahead=50 / rc=2pass / mbtree=1 / bitrate=6655 / ratetol=1.0 / qcomp=0.70 / qpmin=3 / qpmax=69 / qpstep=4 / cplxblur=20.0 / qblur=0.5 / ip_ratio=1.40 / aq=1:1.00
Language : English
Default : Yes
Forced : No

Audio #1
ID : 2
Format : DTS
Format/Info : Digital Theater Systems
Codec ID : A_DTS
Duration : 2h 10mn
Bit rate mode : Constant
Bit rate : 1 510 Kbps
Channel(s) : 6 channels
Channel positions : Front: L C R, Side: L R, LFE
Sampling rate : 48.0 KHz
Bit depth : 24 bits
Compression mode : Lossy
Stream size : 1.37 GiB (17%)
Language : Russian
Default : Yes
Forced : No

Audio #2
ID : 3
Format : AC-3
Format/Info : Audio Coding 3
Mode extension : CM (complete main)
Codec ID : A_AC3
Duration : 2h 10mn
Bit rate mode : Constant
Bit rate : 640 Kbps
Channel(s) : 6 channels
Channel positions : Front: L C R, Side: L R, LFE
Sampling rate : 48.0 KHz
Bit depth : 16 bits
Compression mode : Lossy
Stream size : 595 MiB (7%)
Language : Ukrainian
Default : No
Forced : No

Text
ID : 4
Format : UTF-8
Codec ID : S_TEXT/UTF8
Codec ID/Info : UTF-8 Plain Text
Language : Russian
Default : Yes
Forced : No

Menu
00:00:00.000 : en:00:00:00.000
00:06:52.621 : en:00:06:52.621
00:12:29.290 : en:00:12:29.290
00:21:26.160 : en:00:21:26.160
00:27:31.733 : en:00:27:31.733
00:35:51.316 : en:00:35:51.316
00:43:52.672 : en:00:43:52.672
00:51:34.675 : en:00:51:34.675
01:00:24.913 : en:01:00:24.913
01:06:57.263 : en:01:06:57.263
01:13:51.427 : en:01:13:51.427
01:23:47.814 : en:01:23:47.814
01:33:46.037 : en:01:33:46.037
01:43:27.910 : en:01:43:27.910
01:49:27.936 : en:01:49:27.936
01:57:53.566 : en:01:57:53.566

Свернуть
Скриншоты
Изображение

Изображение

Изображение

Изображение

Изображение

Свернуть
Не в сети
Профиль  
 Добавлено: 2011-12-24 13:04 (спустя 2 часа 36 минут)
Аватара пользователя
Стаж: 5 лет 7 месяцев
Сообщений: 21
так а че не раздается то
Не в сети
Профиль  
Начать новую темуОтветить на тему  [ Сообщений: 2 ] 
Вы не можете начинать темы
Вы не можете отвечать на сообщения
Вы не можете редактировать свои сообщения
Вы не можете удалять свои сообщения