Правила форума

  • В этом разделе создание новых тем Запрещено.
  • Для создания новых тем пользуйтесь Корневым разделом DVD и HD фильмы.
Начать новую темуОтветить на тему  [ 1 сообщение ] 
Торрент файл
Размер: 7.75 GB • Зарегистрирован: 1 год 2 месяца • Статус: Проверено
Скачан: 55 раз • Желающих скачать: 0 • Поблагодарили: 8 раз
 Раздают: 0  |  0 KB/s  ]   Качают: 0  |  0 KB/s  ] 
 Полного источника не было 1 месяц 8 дней 
Сообщения
 Добавлено: 2015-09-30 21:41
RG-ELEKTRO
Аватара пользователя
Стаж: 2 года 3 месяца
Сообщений: 7928
Спасибок: 53757
Лайков: 3304
Антураж / Entourage


Изображение


Год выпуска: 2015
Страна: США (Entourage Holdings, Leverage Entertainment, Warner Bros. Pictures...)
Жанр: комедия
Продолжительность: 01:44:30
Перевод: Профессиональный (дубляж) (Лицензия)
Режиссёр: Даг Эллин
В ролях: Кевин Коннолли, Эдриан Гренье, Кевин Диллон, Джерри Феррара, Джереми Пивен, Эммануэль Шрики, Перри Ривз, Рекс Ли, Деби Мейзар, Риз Койро
Описание: Звезда кино Винс Чейз и его друзья бросают вызов капризному и зачастую жестокому миру Голливуда.
Изображение Изображение
Качество: BDRip 720p
Формат: MKV
Видео кодек: MPEG-4 AVC
Аудио кодек: AC3
Видео: MPEG-4 AVC, 1280x534, 9344 Кбит/сек, 23,976 кадр/сек
Аудио #1: AC3 / 5.1 / 48 kHz / 640 kbps [Профессиональный (дубляж)]
Аудио #2: Aнглийский / AC3 / 5.1 / 48 kHz / 640 kbps
Субтитры: русские (Forced), русские, английские (SDH-COLORED)

"MI"
Format : Matroska
Format version : Version 2
File size : 7.75 GiB
Duration : 1h 44mn
Overall bit rate : 10.6 Mbps
Movie name : Entourage.(2015).BDRip.720p.[denis100]
Encoded date : UTC 2015-09-30 16:08:53
Writing application : mkvmerge v5.8.0 ('No Sleep / Pillow') built on Sep 2 2012 15:37:04
Writing library : libebml v1.2.3 + libmatroska v1.3.0

Video
ID : 1
Format : AVC
Format/Info : Advanced Video Codec
Format profile : High@L4.1
Format settings, CABAC : Yes
Format settings, ReFrames : 11 frames
Codec ID : V_MPEG4/ISO/AVC
Duration : 1h 44mn
Bit rate : 9 344 Kbps
Width : 1 280 pixels
Height : 534 pixels
Display aspect ratio : 2.40:1
Frame rate : 23.976 fps
Color space : YUV
Chroma subsampling : 4:2:0
Bit depth : 8 bits
Scan type : Progressive
Bits/(Pixel*Frame) : 0.570
Stream size : 6.66 GiB (86%)
Title : Entourage.(2015).BDRip.720p.[denis100]
Writing library : x264 core 148 r2597 e86f3a1
Encoding settings : cabac=1 / ref=11 / deblock=1:-3:-3 / analyse=0x3:0x133 / me=umh / subme=11 / psy=1 / psy_rd=1.00:0.00 / mixed_ref=1 / me_range=32 / chroma_me=1 / trellis=2 / 8x8dct=1 / cqm=0 / deadzone=21,11 / fast_pskip=0 / chroma_qp_offset=-2 / threads=6 / lookahead_threads=1 / sliced_threads=0 / nr=0 / decimate=1 / interlaced=0 / bluray_compat=0 / constrained_intra=0 / bframes=12 / b_pyramid=2 / b_adapt=2 / b_bias=0 / direct=3 / weightb=1 / open_gop=0 / weightp=2 / keyint=240 / keyint_min=23 / scenecut=40 / intra_refresh=0 / rc=2pass / mbtree=0 / bitrate=9344 / ratetol=1.0 / qcomp=0.60 / qpmin=0 / qpmax=69 / qpstep=4 / cplxblur=20.0 / qblur=0.5 / ip_ratio=1.40 / pb_ratio=1.30 / aq=2:1.00
Language : English
Default : Yes
Forced : No

Audio #1
ID : 2
Format : AC-3
Format/Info : Audio Coding 3
Mode extension : CM (complete main)
Codec ID : A_AC3
Duration : 1h 44mn
Bit rate mode : Constant
Bit rate : 640 Kbps
Channel(s) : 6 channels
Channel positions : Front: L C R, Side: L R, LFE
Sampling rate : 48.0 KHz
Bit depth : 16 bits
Compression mode : Lossy
Stream size : 478 MiB (6%)
Title : Дублированный
Language : Russian
Default : Yes
Forced : No

Audio #2
ID : 3
Format : AC-3
Format/Info : Audio Coding 3
Mode extension : CM (complete main)
Codec ID : A_AC3
Duration : 1h 44mn
Bit rate mode : Constant
Bit rate : 640 Kbps
Channel(s) : 6 channels
Channel positions : Front: L C R, Side: L R, LFE
Sampling rate : 48.0 KHz
Bit depth : 16 bits
Compression mode : Lossy
Stream size : 478 MiB (6%)
Language : English
Default : No
Forced : No

Text #1
ID : 4
Format : UTF-8
Codec ID : S_TEXT/UTF8
Codec ID/Info : UTF-8 Plain Text
Title : Forced
Language : Russian
Default : Yes
Forced : No

Text #2
ID : 5
Format : UTF-8
Codec ID : S_TEXT/UTF8
Codec ID/Info : UTF-8 Plain Text
Language : Russian
Default : No
Forced : No

Text #3
ID : 6
Format : UTF-8
Codec ID : S_TEXT/UTF8
Codec ID/Info : UTF-8 Plain Text
Title : SDH-COLORED
Language : English
Default : No
Forced : No

Menu
00:00:00.000 : en:00:00:00.000
00:10:33.258 : en:00:10:33.258
00:19:34.382 : en:00:19:34.382
00:29:54.167 : en:00:29:54.167
00:40:42.023 : en:00:40:42.023
00:50:23.145 : en:00:50:23.145
01:00:27.082 : en:01:00:27.082
01:09:51.062 : en:01:09:51.062
01:20:17.396 : en:01:20:17.396
01:30:42.228 : en:01:30:42.228
01:37:08.322 : en:01:37:08.322
Свернуть

Скриншоты
Изображение
Изображение
Изображение
Свернуть
Изображение


Изображение Изображение
_________________
Не ищите меня в "ВКонтакте", в "Одноклассниках" меня нет - я на трекерах сижу!
 dVision нравится это.
Не в сети
Профиль  
Начать новую темуОтветить на тему  [ 1 сообщение ] 
Вы не можете начинать темы
Вы не можете отвечать на сообщения
Вы не можете редактировать свои сообщения
Вы не можете удалять свои сообщения