Правила форума

  • В этом разделе создание новых тем Запрещено.
  • Для создания новых тем пользуйтесь Корневым разделом DVD и HD фильмы.
Начать новую темуОтветить на тему  [ 1 сообщение ] 
Торрент файл
Размер: 9.29 GB • Зарегистрирован: 5 лет 1 месяц • Статус: Проверено
Скачан: 92 раза • Желающих скачать: 0 • Поблагодарили: 14 раз
 Раздают: 0  |  0 KB/s  ]   Качают: 0  |  0 KB/s  ] 
 Полного источника не было 1 год 1 месяц 
Сообщения
 Добавлено: 2011-11-03 19:30
Модератор релиз-группы
Аватара пользователя
Стаж: 9 лет 1 месяц
Возраст: 97
Сообщений: 11660
Спасибок: 6534
Лайков: 269
Аполлон 18 / Apollo 18
«Они не были первыми на Луне»

Изображение

Страна: США, Канада
Жанр: ужасы, фантастика, триллер
Год выпуска: 2011
Продолжительность: 01:26:41
Перевод: Профессиональный одноголосый


Режиссер: Гонсало Лопес-Гальего / Gonzalo Lopez-Gallego
Продюсер: Тимур Бекмамбетов, Мишель Волкофф, Рон Шмидт

В ролях: Уоррен Кристи, Райан Роббинс, Эли Либерт, Ллойд Оуэн, Эндрю Эйрли, Майкл Копса, Kurt Max Runte

Описание: По официальным данным «Аполлон 17» был последней лунной экспедицией с участием людей. Почему уже 35 лет никто не летает на Луну? Ходили слухи, что была еще одна миссия и с ней что-то случилось, но вся информация об этом была засекречена. Не было никаких доказательств, пока не появились эти сенсационные материалы.
Знаете ли вы, что...
• Съёмки фильма проходили с 20 декабря 2010 года по 14 января 2011 в Британской Колумбии.
• Для достижения большего эффекта достоверности и стилизации под запись высадки на Луну съёмки велись теми же камерами и на ту же пленку, что и во время реального путешествия на Луну.
Свернуть
Изображение

Качество: Blu-ray remux
Формат: mkv
Видео: MPEG-4 AVC Video / 13829 kbps / 1080p / 23,976 fps / 16:9 / High Profile 4.1
Аудио 1: Russian / 5.1 / 48 kHz / 1509 kbps / 16-bit Профессиональный одноголосый
скриншоты
Изображение

Изображение

Изображение

Изображение

Изображение
Свернуть
Mi
Format : Matroska
Format version : Version 2
File size : 9.29 GiB
Duration : 1h 26mn
Overall bit rate mode : Variable
Overall bit rate : 15.3 Mbps
Encoded date : UTC 2011-11-03 16:19:53
Writing application : mkvmerge v5.0.1 ('Es ist Sommer') built on Oct 9 2011 11:55:43
Writing library : libebml v1.2.2 + libmatroska v1.3.0

Video
ID : 1
Format : AVC
Format/Info : Advanced Video Codec
Format profile : High@L4.1
Format settings, CABAC : Yes
Format settings, ReFrames : 4 frames
Codec ID : V_MPEG4/ISO/AVC
Duration : 1h 26mn
Bit rate mode : Variable
Bit rate : 13.5 Mbps
Maximum bit rate : 30.0 Mbps
Width : 1 920 pixels
Height : 1 080 pixels
Display aspect ratio : 16:9
Frame rate : 23.976 fps
Standard : NTSC
Color space : YUV
Chroma subsampling : 4:2:0
Bit depth : 8 bits
Scan type : Progressive
Bits/(Pixel*Frame) : 0.272
Stream size : 8.19 GiB (88%)
Color primaries : BT.709-5, BT.1361, IEC 61966-2-4, SMPTE RP177
Transfer characteristics : BT.709-5, BT.1361
Matrix coefficients : BT.709-5, BT.1361, IEC 61966-2-4 709, SMPTE RP177

Audio
ID : 2
Format : DTS
Format/Info : Digital Theater Systems
Codec ID : A_DTS
Duration : 1h 26mn
Bit rate mode : Constant
Bit rate : 1 510 Kbps
Channel(s) : 6 channels
Channel positions : Front: L C R, Side: L R, LFE
Sampling rate : 48.0 KHz
Bit depth : 16 bits
Compression mode : Lossy
Stream size : 936 MiB (10%)

Свернуть
_________________
Изображение


Последний раз редактировалось Артурыч 2011-11-03 21:35, всего редактировалось 1 раз.
Не в сети
Профиль  
Начать новую темуОтветить на тему  [ 1 сообщение ] 
Вы не можете начинать темы
Вы не можете отвечать на сообщения
Вы не можете редактировать свои сообщения
Вы не можете удалять свои сообщения