Правила форума

  • В этом разделе создание новых тем Запрещено.
  • Для создания новых тем пользуйтесь Корневым разделом DVD и HD фильмы.
Начать новую темуОтветить на тему  [ Сообщений: 3 ] 
Торрент файл
Размер: 4.4 GB • Зарегистрирован: 5 лет • Статус: Проверено
Скачан: 199 раз • Желающих скачать: 0 • Поблагодарили: 34 раза
 Раздают: 0  |  0 KB/s  ]   Качают: 0  |  0 KB/s  ] 
 Полного источника не было 2 года 2 месяца 
Сообщения
 Добавлено: 2011-11-13 15:35
Книголюб
Аватара пользователя
Стаж: 7 лет 2 месяца
Сообщений: 2823
Спасибок: 48823
Лайков: 73
Аполлон 18
Apollo 18
Изображение


Год выпуска: 2011
Страна: США, Канада
Слоган: «Они не были первыми на Луне»
Жанр: ужасы, фантастика, триллер
Продолжительность: 01:12:26
Перевод: Профессиональный (одноголосый закадровый)

Режиссёр: Гонсало Лопес-Гальего
В ролях: Уоррен Кристи, Ллойд Оуэн
Описание: По официальным данным «Аполлон 17» был последней лунной экспедицией с участием людей. Почему уже 35 лет никто не летает на Луну? Ходили слухи, что была еще одна миссия и с ней что-то случилось, но вся информация об этом была засекречена. Не было никаких доказательств, пока не появились эти сенсационные материалы.
Рейтинг MPAA: Рейтинг PG-13 (Дети до 13 лет допускаются на фильм только с родителями)
Мировая премьера: 1 сентября 2011
Премьера в России: 1 сентября 2011, «WDSSPR»
Бюджет: $2 094 539
Изображение 6.079 5 323

Качество: BDRip 1080p
Формат: MKV
Видео кодек: H.264
Аудио кодек: DTS
Видео: 1920x1036 pix., 23.976 fps, 5 757 Kbps, 0.121Bits/Pixel
Аудио #1: 48000Hz 6ch


MediaInfo
General
Unique ID : 225190627741528527973403251083699913050 (0xA96A232728D66514B540B38039AD815A)
Complete name : I:\Apollo.18.2011.BDRip.1080p.mkv
Format : Matroska
File size : 4.40 GiB
Duration : 1h 26mn
Overall bit rate : 7 264 Kbps
Encoded date : UTC 2011-11-04 19:41:25
Writing application : mkvmerge v5.0.1 ('Es ist Sommer') built on Oct 24 2011 19:45:06
Writing library : libebml v1.2.2 + libmatroska v1.3.0

Video
ID : 1
Format : AVC
Format/Info : Advanced Video Codec
Format profile : High@L4.1
Format settings, CABAC : Yes
Format settings, ReFrames : 4 frames
Codec ID : V_MPEG4/ISO/AVC
Duration : 1h 26mn
Bit rate : 5 757 Kbps
Width : 1 920 pixels
Height : 1 036 pixels
Display aspect ratio : 1.853
Frame rate : 23.976 fps
Color space : YUV
Chroma subsampling : 4:2:0
Bit depth : 8 bits
Scan type : Progressive
Bits/(Pixel*Frame) : 0.121
Stream size : 3.40 GiB (77%)
Writing library : x264 core 119 r2106 07efeb4
Encoding settings : cabac=1 / ref=4 / deblock=1:-1:-1 / analyse=0x3:0x113 / me=umh / subme=9 / psy=1 / psy_rd=1.00:0.00 / mixed_ref=1 / me_range=32 / chroma_me=1 / trellis=2 / 8x8dct=1 / cqm=0 / deadzone=21,11 / fast_pskip=0 / chroma_qp_offset=-2 / threads=6 / sliced_threads=0 / nr=0 / decimate=1 / interlaced=0 / bluray_compat=0 / constrained_intra=0 / bframes=4 / b_pyramid=2 / b_adapt=2 / b_bias=0 / direct=3 / weightb=1 / open_gop=0 / weightp=2 / keyint=240 / keyint_min=24 / scenecut=40 / intra_refresh=0 / rc_lookahead=60 / rc=2pass / mbtree=1 / bitrate=5757 / ratetol=1.0 / qcomp=0.60 / qpmin=0 / qpmax=69 / qpstep=4 / cplxblur=20.0 / qblur=0.5 / ip_ratio=1.40 / aq=1:1.00
Language : English

Audio
ID : 2
Format : DTS
Format/Info : Digital Theater Systems
Codec ID : A_DTS
Duration : 1h 26mn
Bit rate mode : Constant
Bit rate : 1 510 Kbps
Channel(s) : 6 channels
Channel positions : Front: L C R, Side: L R, LFE
Sampling rate : 48.0 KHz
Bit depth : 16 bits
Compression mode : Lossy
Stream size : 936 MiB (21%)
Title : AVO
Language : Russian


Свернуть


Скриншоты
Изображение
Изображение
Изображение
Свернуть
Не в сети
Профиль  
 Добавлено: 2011-12-20 21:04 (спустя 1 месяц 7 дней)
Аватара пользователя
Стаж: 5 лет 4 месяца
Сообщений: 30
:) :) :)
Не в сети
Профиль  
 Добавлено: 2012-03-27 12:54 (спустя 3 месяца 6 дней)
Аватара пользователя
Стаж: 7 лет 8 месяцев
Сообщений: 16
кинуха классная. спасибо
Не в сети
Профиль  
Начать новую темуОтветить на тему  [ Сообщений: 3 ] 
Вы не можете начинать темы
Вы не можете отвечать на сообщения
Вы не можете редактировать свои сообщения
Вы не можете удалять свои сообщения