Правила форума

  • В этом разделе создание новых тем Запрещено.
  • Для создания новых тем пользуйтесь Корневым разделом DVD и HD фильмы.
Начать новую темуОтветить на тему  [ 1 сообщение ] 
Торрент файл
Размер: 13.43 GB • Зарегистрирован: 5 лет 6 месяцев • Статус: Проверено
Скачан: 23 раза • Желающих скачать: 0 • Поблагодарили: 4 раза
 Раздают: 0  |  0 KB/s  ]   Качают: 0  |  0 KB/s  ] 
 Полного источника не было 1 год 9 месяцев 
Сообщения
 Добавлено: 2011-05-24 19:55
Инквизитор
Аватара пользователя
Стаж: 8 лет 8 месяцев
Сообщений: 3753
Спасибок: 28359
Лайков: 9
Изображение

Аризонская мечта / Arizona Dream


«A rebellious young man. With his own vision of the future. And his own fantasy of love.»

Год выпуска: 1993
Страна: США, Франция
Жанр: фэнтези, драма, мелодрама, комедия
Продолжительность: 02:20:23
Перевод: Профессиональный (многоголосый, закадровый)
Режиссер: Эмир Кустурица
Сценарий: Дэвид Аткинс, Эмир Кустурица
Продюсер: Ричард Брик, Пол Р. Гуриан, Ив Мармион
Оператор: Вилко Филач
Композитор: Горан Брегович, Ричард М. Шерман, Роберт Б. Шерман
В ролях: Джонни Депп, Джерри Льюис, Фэй Данауэй, Лили Тейлор, Винсент Галло, Паулина Поризкова, Майкл Дж. Поллард, Кэндис Мэйсон, Алексия Рэйн, Полли Нунан
Описание: Дядя Лео привык добиваться своего. А хочет он, чтобы племянник Аксель стал шафером на его свадьбе и работал в его фирме по продаже «кадиллаков». Аксель же ничего не хочет.
Он предпочитает проводить время в компании своей возлюбленной, местной сумасшедшей Элен, и ее падчерицы Грейс, и вместе с ними предаваться мечтам. Влюбленная Элен мечтает летать как птица. Отвергнутая Грейс мечтает перевоплотиться в черепаху.
Аксель мечтает о заснеженных просторах Аляски, где охотники-эскимосы ловят стрелозубых палтусов. Мечтает даже дядя Лео: построить бы целую гору из «кадиллаков» и забраться бы по ней на Луну.

Изображение
Бюджет: $19 000 000
Изображение
MPAA:
Раздача группы: Изображение

Релиз группы: Изображение
Качество: BDRip
Формат: MKV
Видео: 1920x1040 at 23.976 fps, x264@L4.1, 2pass, ~11743 kbps avg
Аудио#1: Russian: 48 kHz, AC3, 3/2 (L,C,R,l,r) + LFE ch, ~448.00 kbps avg |Многоголосый закадровый|
Аудио#2: English: 48 kHz, DTS, 2/0 (L,R) ch, ~1536.00 kbps avg
Субтитры: Russian, Ukrainian, English

M.I.
Общее
Уникальный идентификатор         : 182555720594815067192237937851072115739 (0x8956F3F006F67F3B84976175B1A5F41B)
Полное имя                       : K:\Фильмы\Arizona.Dream.1993.BDRip.1080p.HDCLUB.mkv
Формат                           : Matroska
Размер файла                     : 13,4 Гбайт
Продолжительность                : 2 ч. 20 м.
Общий поток                      : 13,7 Мбит/сек
Дата кодирования                 : UTC 2011-05-21 14:15:52
Программа кодирования            : mkvmerge v4.6.0 ('Still Crazy After All These Years') built on Mar 10 2011 02:50:32
Библиотека кодирования           : libebml v1.2.0 + libmatroska v1.1.0

Видео
Идентификатор                    : 1
Формат                           : AVC
Формат/Информация                : Advanced Video Codec
Профиль формата                  : High@L4.1
Параметр CABAC формата           : Да
Параметр ReFrames формата        : 4 кадры
Параметры GOP формата            : M=1, N=5
Идентификатор кодека             : V_MPEG4/ISO/AVC
Продолжительность                : 2 ч. 20 м.
Битрейт                          : 11,7 Мбит/сек
Ширина                           : 1920 пикс.
Высота                           : 1040 пикс.
Соотношение сторон               : 16:9
Частота кадров                   : 23,976 кадр/сек
Цветовое пространство            : YUV
Подвыборка цветности             : 4:2:0
Битовая глубина                  : 8 бит
Тип развёртки                    : Прогрессивная
Бит/(Пиксели*Кадры)              : 0.245
Размер потока                    : 11,2 Гбайт (84%)
Библиотека кодирования           : x264 core 114 r1924 08d04a4
Настройки программы              : cabac=1 / ref=4 / deblock=1:-3:-3 / analyse=0x3:0x113 / me=umh / subme=10 / psy=1 / psy_rd=1.10:0.15 / mixed_ref=1 / me_range=48 / chroma_me=1 / trellis=2 / 8x8dct=1 / cqm=0 / deadzone=21,11 / fast_pskip=0 / chroma_qp_offset=-2 / threads=12 / sliced_threads=0 / nr=0 / decimate=1 / interlaced=0 / constrained_intra=0 / bframes=6 / b_pyramid=2 / b_adapt=2 / b_bias=0 / direct=3 / weightb=1 / open_gop=0 / weightp=2 / keyint=250 / keyint_min=23 / scenecut=40 / intra_refresh=0 / rc_lookahead=60 / rc=2pass / mbtree=1 / bitrate=11743 / ratetol=1.0 / qcomp=0.70 / qpmin=0 / qpmax=69 / qpstep=4 / cplxblur=20.0 / qblur=0.5 / vbv_maxrate=40000 / vbv_bufsize=30000 / nal_hrd=none / ip_ratio=1.40 / aq=1:0.90
Язык                             : English

Аудио #1
Идентификатор                    : 2
Формат                           : AC-3
Формат/Информация                : Audio Coding 3
Расширение режима                : CM (complete main)
Идентификатор кодека             : A_AC3
Продолжительность                : 2 ч. 20 м.
Вид битрейта                     : Постоянный
Битрейт                          : 448 Кбит/сек
Канал(ы)                         : 6 канала(ов)
Расположение каналов             : Front: L C R, Side: L R, LFE
Частота                          : 48,0 КГц
Битовая глубина                  : 16 бит
Метод сжатия                     : С потерями
Размер потока                    : 450 Мбайт (3%)
Язык                             : Russian

Аудио #2
Идентификатор                    : 3
Формат                           : DTS
Формат/Информация                : Digital Theater Systems
Идентификатор кодека             : A_DTS
Продолжительность                : 2 ч. 20 м.
Вид битрейта                     : Постоянный
Битрейт                          : 1510 Кбит/сек
Канал(ы)                         : 2 канала(ов)
Расположение каналов             : Front: L R
Частота                          : 48,0 КГц
Битовая глубина                  : 24 бит
Метод сжатия                     : С потерями
Размер потока                    : 1,48 Гбайт (11%)
Язык                             : English

Текст #1
Идентификатор                    : 4
Формат                           : UTF-8
Идентификатор кодека             : S_TEXT/UTF8
Идентификатор кодека/Информация  : UTF-8 Plain Text
Язык                             : Russian

Текст #2
Идентификатор                    : 5
Формат                           : UTF-8
Идентификатор кодека             : S_TEXT/UTF8
Идентификатор кодека/Информация  : UTF-8 Plain Text
Язык                             : Ukrainian

Текст #3
Идентификатор                    : 6
Формат                           : UTF-8
Идентификатор кодека             : S_TEXT/UTF8
Идентификатор кодека/Информация  : UTF-8 Plain Text
Язык                             : English
Свернуть
"Знаете ли Вы, что..."
  • В фильме несколько раз цитируется знаменитая сцена с кукурузником из фильма «К северу через северо-запад» Альфреда Хичкока, а также диалоги из первой и второй частей «Крёстного отца».
  • Кустурица монтировал «Аризонскую мечту» в течение нескольких лет, в итоге, несмотря на «Серебряного медведя» Берлинского кинофестиваля, фильм провалился в прокате. Французские продюсеры, потратившие на проект много сил, денег и времени, признали идею коллаборации «балканского Феллини» и голливудских звёзд провальной. Несмотря на это, многие киноманы считают «Аризонскую мечту» лучшей работой режиссёра.
  • Сценарий «Аризонской мечты» был сделан на основе истории одного из студентов Эмира Кустурицы – Дэвида Аткинса.
  • Лили Тэйлор была первой, кто был утвержден на роль в этом фильме, Кустурица называл ее своей музой.
  • Джонни Депп поначалу не хотел сниматься у Кустурицы, при первой встрече Эмир ему очень не понравился.
  • Съемки фильма прерывались на три месяца, так как у Кустурицы была депрессия по поводу войны, начавшейся в его родной Югославии.
  • Ради затянувшихся съемок «Аризонской мечты» Джонни Депп отказался от съемок в фильмах «Интервью с вампиром» и «Легенды осени».
  • В перерыве между съемками Фэй Данауэй и Джонни снялись в клипе Тома Петти «Into The Great Wide Open» .
  • Джонни всерьез собирался учить эскимосский язык ради нескольких сцен в фильме, но Джерри Льюис предложил сделать «как будто» эскимосский язык.
  • В начале фильма есть сцена, где в баре Поль уговаривает Акселя вернуться домой. Человек, который в это время громко разговаривает по телефону - друг детства Джонни, Сэл Дженко. Чуть позже, в этой же сцене, в кадр попадает Эмир Кустурица – Аксель кидается в него кукурузными хлопьями.
  • Несколько песен с саундтрека к фильму исполняет Игги Поп, старинный друг Джонни Деппа.
  • В дополнительных материалах к ДВД есть несколько сцен, не вошедших в фильм, которые совершенно меняют характер Акселя и суть фильма.
  • В кинотеатре показывают фильм «Бешеный бык» 1980 года режиссера Мартина Скорсезе.
  • Грейс играет на аккордеоне именно ту мелодию, которая звучит в финальных титрах мультфильма Винсент (реж. Тим Бертон, 1982).
Свернуть
Скриншоты
Изображение
Изображение
Изображение
Изображение
Свернуть
Не в сети
Профиль  
Начать новую темуОтветить на тему  [ 1 сообщение ] 
Вы не можете начинать темы
Вы не можете отвечать на сообщения
Вы не можете редактировать свои сообщения
Вы не можете удалять свои сообщения