Правила форума

  • В этом разделе создание новых тем Запрещено.
  • Для создания новых тем пользуйтесь Корневым разделом DVD и HD фильмы.
Начать новую темуОтветить на тему  [ Сообщений: 4 ] 
Торрент файл
Размер: 9.01 GB • Зарегистрирован: 5 лет 8 месяцев • Статус: Проверено
Скачан: 129 раз • Желающих скачать: 0 • Поблагодарили: 16 раз
 Раздают: 0  |  0 KB/s  ]   Качают: 0  |  0 KB/s  ] 
 Полного источника не было 3 года 2 месяца 
Сообщения
 Добавлено: 2011-03-14 18:26
Модератор релиз-группы
Аватара пользователя
Стаж: 9 лет 1 месяц
Возраст: 97
Сообщений: 11659
Спасибок: 6532
Лайков: 269
Арктический взрыв / Arctic Blast

Изображение


Год выпуска: 2010
Страна: Канада, Австралия
Жанр: Фантастика
Продолжительность: 01:31:44
Перевод: Профессиональный (двухголосый закадровый)
Оригинальная звуковая дорожка

Режиссёр: Брайан Тренчард-Смит / Brian Trenchard-Smith
В ролях: Майкл Шэнкс, Синтия Берк, Брюс Дэвисон, Индиана Эванс, Роберт Мэммоун, Александра Дэйвис
Описание: После солнечного затмения с верхних слоев атмосферы к поверхности планеты начинается движение колоссального объема сверхохлажденного воздуха. Так начинается катастрофическая цепь событий, в результате которых может начаться новый Ледниковый период.
Изображение 3.382 голосов:203

Изображение

Качество: BDRip, 1080p
Формат: MKV
Видео кодек: H264 (AVC)
Аудио кодек: AC3 (Dolby Digital)
Видео: MPEG4 AVC, 1920x1080, 16:9, 11.8 Мбіт/сек, 23.976 кадр/сек
Аудио #1: Русский Dolby AC3, 6ch, 48000Hz, 448Kbps, Front: L C R, Surround: L R, LFE [Профессиональный (двухголосый закадровый)]
Аудио #2: Английский DTS, 6ch, 48000Hz, 1510Kbps, Front: L C R, Surround: L R, LFE [Оригинальная звуковая дорожка]
Скриншоты
Изображение
Изображение
Изображение
Изображение
Изображение
Свернуть

Mi
Format : Matroska
File size : 9.01 GiB
Duration : 1h 31mn
Overall bit rate : 14.1 Mbps
Encoded date : UTC 2011-03-11 15:29:30
Writing application : gdsmux
Writing library : Haali DirectShow Matroska Muxer 1.10.262.12

Video
ID : 1
Format : AVC
Format/Info : Advanced Video Codec
Format profile : High@L4.1
Format settings, CABAC : Yes
Format settings, ReFrames : 4 frames
Codec ID : V_MPEG4/ISO/AVC
Duration : 1h 31mn
Bit rate : 12.1 Mbps
Width : 1 920 pixels
Height : 1 080 pixels
Display aspect ratio : 16:9
Frame rate mode : Constant
Frame rate : 23.976 fps
Color space : YUV
Chroma subsampling : 4:2:0
Bit depth : 8 bits
Scan type : Progressive
Bits/(Pixel*Frame) : 0.244
Stream size : 7.57 GiB (84%)
Writing library : x264 core 114 r1913 5fd3dce
Encoding settings : cabac=1 / ref=4 / deblock=1:0:0 / analyse=0x3:0x133 / me=umh / subme=7 / psy=1 / psy_rd=1.00:0.00 / mixed_ref=1 / me_range=16 / chroma_me=1 / trellis=1 / 8x8dct=1 / cqm=0 / deadzone=21,11 / fast_pskip=0 / chroma_qp_offset=-2 / threads=12 / sliced_threads=0 / nr=0 / decimate=1 / interlaced=0 / constrained_intra=0 / bframes=3 / b_pyramid=2 / b_adapt=1 / b_bias=0 / direct=1 / weightb=1 / open_gop=0 / weightp=2 / keyint=250 / keyint_min=23 / scenecut=40 / intra_refresh=0 / rc=2pass / mbtree=0 / bitrate=12144 / ratetol=1.0 / qcomp=0.60 / qpmin=0 / qpmax=69 / qpstep=4 / cplxblur=20.0 / qblur=0.5 / ip_ratio=1.40 / pb_ratio=1.30 / aq=1:1.00
Language : English

Audio #1
ID : 2
Format : AC-3
Format/Info : Audio Coding 3
Mode extension : CM (complete main)
Muxing mode : Header stripping
Codec ID : A_AC3
Duration : 1h 31mn
Bit rate mode : Constant
Bit rate : 448 Kbps
Channel(s) : 6 channels
Channel positions : Front: L C R, Side: L R, LFE
Sampling rate : 48.0 KHz
Bit depth : 16 bits
Compression mode : Lossy
Stream size : 294 MiB (3%)
Title : Профессиональное ТВ3
Language : Russian

Audio #2
ID : 3
Format : DTS
Format/Info : Digital Theater Systems
Codec ID : A_DTS
Duration : 1h 31mn
Bit rate mode : Constant
Bit rate : 1 510 Kbps
Channel(s) : 6 channels
Channel positions : Front: L C R, Side: L R, LFE
Sampling rate : 48.0 KHz
Bit depth : 24 bits
Compression mode : Lossy
Stream size : 991 MiB (11%)
Language : English

Свернуть
Не в сети
Профиль  
 Добавлено: 2011-03-14 19:04 (спустя 38 минут)
Аватара пользователя
Стаж: 7 лет 2 месяца
Возраст: 29
Сообщений: 73
Кто смотрел7оцените :du_ma_et:
Не в сети
Профиль  
 Добавлено: 2011-03-14 21:05 (спустя 2 часа)
Аватара пользователя
Стаж: 7 лет 4 месяца
Возраст: 31
Сообщений: 321
Спасибок: 57
как филь то?
Не в сети
Профиль  
 Добавлено: 2011-03-16 02:36 (спустя 1 день 5 часов)
Инквизитор
Аватара пользователя
Стаж: 8 лет 9 месяцев
Возраст: 25
Сообщений: 2537
Спасибок: 3227
Лайков: 33
wadgal моя оценка фильму 1 из 10
ппц брееееееееееееееед же
"У нас ледниковый период... темпиратура тумана -32"
:-D :-D :-D :-D :-D :-D
_________________
Изображение Изображение
Не в сети
Профиль  
Начать новую темуОтветить на тему  [ Сообщений: 4 ] 
Вы не можете начинать темы
Вы не можете отвечать на сообщения
Вы не можете редактировать свои сообщения
Вы не можете удалять свои сообщения