Правила форума

  • В этом разделе создание новых тем Запрещено.
  • Для создания новых тем пользуйтесь Корневым разделом DVD и HD фильмы.
Начать новую темуОтветить на тему  [ Сообщений: 8 ] 
Торрент файл
Размер: 6.97 GB • Зарегистрирован: 4 года 8 месяцев • Статус: Проверено
Скачан: 233 раза • Желающих скачать: 0 • Поблагодарили: 30 раз
 Раздают: 0  |  0 KB/s  ]   Качают: 0  |  0 KB/s  ] 
 Полного источника не было 1 день 6 часов 
Сообщения
 Добавлено: 2012-03-14 23:44
Руководитель релиз-группы
Аватара пользователя
Стаж: 9 лет 1 месяц
Возраст: 28
Сообщений: 4244
Спасибок: 31989
Лайков: 32
Изображение
Артист / The Artist


«Любовь как в кино.»

Год выпуска | 2011
Страна | Франция ∙ Бельгия
Жанр | драма ∙ мелодрама ∙ комедия
Продолжительность | 01:40:28
Перевод | Оригинальный ∙ Комментарии ∙ Интертитры (русские) ∙ Субтитры (форсированные: русские, английские, французские)


Режиссер | Мишель Хазанавичус
Сценарий | Мишель Хазанавичус
Продюсер | Тома Лангманн ∙ Эммануэль Монтамат ∙ Джереми Бурдек ∙ Антуан де Казотте ∙ Дэниэл Делюм
Оператор | Гийом Шиффман
Композитор | Людовик Бурсе

В ролях | Жан Дюжарден (George Valentin) ∙ Беренис Бежо (Peppy Miller) ∙ Джон Гудмен (Al Zimmer) ∙ Джеймс Кромуэлл (Clifton) ∙ Пенелопа Энн Миллер (Doris) ∙ Мисси Пайл (Constance) ∙ Угги (The Dog) ∙ Бет Грант (Peppy's Maid) ∙ Эд Лотер (The Butler) ∙ Джоэль Мюррей (Policeman Fire) ∙ Битси Таллоч (Norma) ∙ Кен Давитян (Pawnbroker) и др.


Описание | Голливуд, 1927 год. Звезда немого кино Джордж Валентайн и слышать не хочет о микрофонах на съемочной площадке. А безнадежно влюбленная в Валентайна статистка Пеппи Миллер стремительно набирает популярность в новом звуковом кинематографе. Только любовь поможет героям обрести счастье.


Релиз | ИзображениеРаздача | Изображение


kinopoisk.ru | 8.682 (13 704)


Бюджет | $15 000 000
Сборы в США | $40 423 305
Сборы в России | $2 173 360
Сборы в мире | $112 541 141
Мировая премьера | 15 мая 2011


Знаете ли Вы, что...
  • На Каннском кинофестивале приза был удостоен не только Жан Дюжарден, но и Джек-Рассел-терьер по кличке Угги. Он получил специальный приз PALM DOG, который на фестивале ежегодно вручают за лучшую роль в исполнении собаки.
  • На Каннском кинофестивале после показа фильма зал 10 минут аплодировал стоя.
  • Джону Гудману понадобилось всего четыре минуты, чтобы согласиться на роль в картине, настолько ему понравилась задумка режиссера.
  • Решение снимать картину в Голливуде, в настоящих исторических местах, увеличило бюджет картины почти до 20 миллионов долларов.
  • Из-за излишней четкости и недостаточной зернистости современной черно-белой пленки фильм снимался на цветную пленку. Однако применялись специальные фильтры, чтобы сделать черный и белый более яркими или блеклыми в зависимости от настроения сцены.
Свернуть


Качество | BDRip 1080p
Контейнер | Matroska
Видео | AVC ∙ 1436x1080 (4:3) ∙ 8038 kbps ∙ 23.976 fps ∙ 0.216 bit/pixel
Аудио #1 | DTS ∙ 1509 kbps ∙ CBR ∙ 6 channels ∙ 24 bit /FRE/
Аудио #2 | AC3 ∙ 192 kbps ∙ CBR ∙ 2 channels ∙ 16 bit /COMM/

MediaInfo
General
Unique ID : 196615600949447593226681568383849967714 (0x93EAC98F20FDB5B9A07A8BC81F6BB062)
Complete name : J:\films\The.Artist.2011.1080p.BDRip.1080p.HardSub[R.G.KiNOvNiNO].mkv
Format : Matroska
File size : 6.97 GiB
Duration : 1h 40mn
Overall bit rate : 9 938 Kbps
Movie name : The Artist (2011) - Release for HDCLUB by Skazhutin
Encoded date : UTC 2012-03-13 09:07:02
Writing application : mkvmerge v5.4.0 ('Piper') built on Mar 10 2012 13:34:39
Writing library : libebml v1.2.3 + libmatroska v1.3.0
Cover : Yes / Yes

Video
ID : 1
Format : AVC
Format/Info : Advanced Video Codec
Format profile : High@L4.1
Format settings, CABAC : Yes
Format settings, ReFrames : 5 frames
Format settings, GOP : M=9, N=12
Codec ID : V_MPEG4/ISO/AVC
Duration : 1h 40mn
Bit rate : 8 038 Kbps
Width : 1 436 pixels
Height : 1 080 pixels
Display aspect ratio : 4:3
Frame rate : 23.976 fps
Color space : YUV
Chroma subsampling : 4:2:0
Bit depth : 8 bits
Scan type : Progressive
Bits/(Pixel*Frame) : 0.216
Stream size : 5.64 GiB (81%)
Title : Release for HDCLUB
Writing library : x264 core 122 r2183kMod c522ad1
Encoding settings : cabac=1 / ref=5 / deblock=1:-3:-3 / analyse=0x3:0x113 / me=umh / subme=11 / psy=1 / fade_compensate=0.00 / psy_rd=1.00:0.00 / mixed_ref=1 / me_range=48 / chroma_me=1 / trellis=2 / 8x8dct=1 / cqm=0 / deadzone=21,11 / fast_pskip=1 / chroma_qp_offset=-2 / threads=12 / sliced_threads=0 / nr=0 / decimate=1 / interlaced=0 / bluray_compat=0 / constrained_intra=0 / bframes=8 / b_pyramid=2 / b_adapt=2 / b_bias=0 / direct=1 / weightb=1 / open_gop=0 / weightp=2 / keyint=250 / keyint_min=23 / scenecut=40 / intra_refresh=0 / rc_lookahead=60 / rc=crf / mbtree=1 / crf=17.5000 / qcomp=0.80 / qpmin=0 / qpmax=69 / qpstep=4 / vbv_maxrate=50000 / vbv_bufsize=62500 / crf_max=0.0 / nal_hrd=none / ip_ratio=1.40 / aq=3:0.80
Language : French
Matrix coefficients : BT.709-5, BT.1361, IEC 61966-2-4 709, SMPTE RP177

Audio #1
ID : 2
Format : DTS
Format/Info : Digital Theater Systems
Codec ID : A_DTS
Duration : 1h 40mn
Bit rate mode : Constant
Bit rate : 1 510 Kbps
Channel(s) : 6 channels
Channel positions : Front: L C R, Side: L R, LFE
Sampling rate : 48.0 KHz
Bit depth : 24 bits
Compression mode : Lossy
Stream size : 1.06 GiB (15%)
Title : DTS 5.1 @ 1536 kbps
Language : French

Audio #2
ID : 3
Format : AC-3
Format/Info : Audio Coding 3
Mode extension : CM (complete main)
Codec ID : A_AC3
Duration : 1h 40mn
Bit rate mode : Constant
Bit rate : 192 Kbps
Channel(s) : 2 channels
Channel positions : Front: L R
Sampling rate : 48.0 KHz
Bit depth : 16 bits
Compression mode : Lossy
Stream size : 138 MiB (2%)
Title : AC3 2.0 @ 192 kbps - Commentary
Language : French

Text #1
ID : 4
Format : UTF-8
Codec ID : S_TEXT/UTF8
Codec ID/Info : UTF-8 Plain Text
Title : Doctor_Joker
Language : Russian

Text #2
ID : 5
Format : UTF-8
Codec ID : S_TEXT/UTF8
Codec ID/Info : UTF-8 Plain Text
Language : English

Text #3
ID : 6
Format : UTF-8
Codec ID : S_TEXT/UTF8
Codec ID/Info : UTF-8 Plain Text
Language : French

Menu
00:00:00.000 : en:Chapter 1
00:01:56.491 : en:Chapter 2
00:05:30.663 : en:Chapter 3
00:09:48.879 : en:Chapter 4
00:15:14.496 : en:Chapter 5
00:26:01.268 : en:Chapter 6
00:33:09.278 : en:Chapter 7
00:39:46.008 : en:Chapter 8
00:46:21.403 : en:Chapter 9
00:53:58.360 : en:Chapter 10
01:03:38.439 : en:Chapter 11
01:13:25.067 : en:Chapter 12
01:21:28.091 : en:Chapter 13
01:26:04.868 : en:Chapter 14
01:33:51.709 : en:Chapter 15
01:37:20.334 : en:Chapter 16
Свернуть


Скриншоты


Изображение


Изображение


Изображение


Свернуть
Примеры интертитров


Изображение


Изображение


Изображение


Свернуть
_________________
«you failed because you had the wrong dream...»
Не в сети
Профиль  
 Добавлено: 2012-03-15 16:20 (спустя 16 часов)
Аватара пользователя
Стаж: 7 лет 9 месяцев
Сообщений: 204
Спасибок: 6295
Лайков: 1
как фильм?
Не в сети
Профиль  
 Добавлено: 2012-03-15 19:59 (спустя 3 часа)
Руководитель релиз-группы
Аватара пользователя
Стаж: 9 лет 1 месяц
Возраст: 28
Сообщений: 4244
Спасибок: 31989
Лайков: 32

Tallib2810:

как фильм?
Cкрытый текст



Свернуть
_________________
«you failed because you had the wrong dream...»
Не в сети
Профиль  
 Добавлено: 2012-03-17 20:34 (спустя 2 дня)
Кинокомментатор
Аватара пользователя
Стаж: 9 лет
Сообщений: 1331
Лайков: 52
ну что:) это кино про кино:) и я за звуковое кино))) а то я пока смотрел устал уже смотреть:) скучновато и растянуто... кино понятное серьёзное и сделано всё хорошо) но скучновато конечно) не попкорн не попкорн:) фильму дал бы 7/10
_________________
Я ВКонтакте
Не в сети
Профиль  
 Добавлено: 2012-03-18 08:28 (спустя 11 часов)
Аватара пользователя
Стаж: 8 лет 10 месяцев
Сообщений: 703
Спасибок: 11142
Лайков: 2
Как фильм?
_________________
Изображение
Не в сети
Профиль  
 Добавлено: 2012-03-29 10:48 (спустя 11 дней)
Аватара пользователя
Стаж: 8 лет 3 месяца
Сообщений: 1690
Спасибок: 21277
Лайков: 6

Pahan85:

Как фильм?
По мне, так могу одним словом выразиться - "замечательно!".


Последний раз редактировалось fearless54 2015-04-05 23:23, всего редактировалось 1 раз.
Не в сети
Профиль  
 Добавлено: 2015-03-14 21:15 (спустя 2 года 11 месяцев)
Аватара пользователя
Стаж: 7 лет 8 месяцев
Сообщений: 5
А скачать дайте кто-нибудь :)
Не в сети
Профиль  
 Добавлено: 2015-07-19 16:36 (спустя 4 месяца 4 дня)
Кинокомментатор
Аватара пользователя
Стаж: 9 лет
Сообщений: 1331
Лайков: 52
дааайте скоростишки то)
Не в сети
Профиль  
Начать новую темуОтветить на тему  [ Сообщений: 8 ] 
Вы не можете начинать темы
Вы не можете отвечать на сообщения
Вы не можете редактировать свои сообщения
Вы не можете удалять свои сообщения