Правила форума

  • В этом разделе создание новых тем Запрещено.
  • Для создания новых тем пользуйтесь Корневым разделом DVD и HD фильмы.
Начать новую темуОтветить на тему  [ Сообщений: 5 ] 
Торрент файл
Размер: 10.5 GB • Зарегистрирован: 5 лет 1 месяц • Статус: Проверено
Скачан: 29 раз • Желающих скачать: 0 • Поблагодарили: 13 раз
 Раздают: 0  |  0 KB/s  ]   Качают: 0  |  0 KB/s  ] 
 Полного источника не было 1 год 5 месяцев 
Сообщения
 Добавлено: 2011-10-22 18:23
Модератор релиз-группы
Аватара пользователя
Стаж: 9 лет 1 месяц
Возраст: 97
Сообщений: 11659
Спасибок: 6532
Лайков: 269
Астерикс и Обеликс: Миссия Клеопатра / Astérix & Obélix: Mission Cléopâtre

Изображение

Страна: Германия, Франция
Жанр: фэнтези, комедия, приключения, семейный
Год выпуска: 2002
Продолжительность: 01:48:01
Перевод: Профессиональный (дублированный)
Оригинальная аудиодорожка французская
Cубтитры: русские


Режиссер: Ален Шаба / Alain Chabat

В ролях: Жерар Депардье,Кристиан Клавье, Жамель Деббуз,Моника Беллуччи,Ален Шаба,Клод Риш,Жерар Дармон,Эдуард Баэр

Описание: Великая Клеопатра заключила пари с римским императором Юлием Цезарем о том, что ее подданные смогут всего за три месяца построить грандиозный дворец, превосходящий лучшие римские дворцы. Этой опасной чести был удостоен архитектор Нумернобис, которого — в случае неудачи — должны съесть крокодилы.
Нумернобис вызывает на помощь своего старого друга — волшебника-друида Панарамикса с зельем, дарующим сверхъестественную силу. А веселые, находчивые Астерикс и Обеликс вместе с песиком Идеафиксом сопровождают друида в Египет, чтобы помешать проискам Цезаря, не желающего проигрывать Клеопатре.
Изображение
Качество: BDRip 1080p
Формат: MKV
Видео: MPEG-4 AVC Video, 1920x816, 2.35:1, 24.000 fps, High Profile 4.1, ~13100 kbps avg, bit/(pixel*frame) 0.350
Аудио: Russian: 48 kHz, AC3, 3/2 (L,C,R,l,r) + LFE ch, ~384.00 kbps avg
Аудио 2: French: 48 kHz, AC3, 3/2 (L,C,R,l,r) + LFE ch, ~384.00 kbps avg
Cубтитры: русские
Сохранены оригинальные чаптеры
скриншоты
Изображение

Изображение

Изображение

Изображение
Свернуть
Mi
Format : Matroska
Format version : Version 2
File size : 10.5 GiB
Duration : 1h 48mn
Overall bit rate : 13.9 Mbps
Movie name : ripped by -=mallaigne=-
Encoded date : UTC 2011-10-22 04:47:20
Writing application : mkvmerge v5.0.1 ('Es ist Sommer') built on Oct 9 2011 11:55:43
Writing library : libebml v1.2.2 + libmatroska v1.3.0

Video
ID : 1
Format : AVC
Format/Info : Advanced Video Codec
Format profile : High@L4.1
Format settings, CABAC : Yes
Format settings, ReFrames : 4 frames
Codec ID : V_MPEG4/ISO/AVC
Duration : 1h 48mn
Bit rate : 13.1 Mbps
Width : 1 920 pixels
Height : 816 pixels
Display aspect ratio : 2.35:1
Frame rate : 24.000 fps
Color space : YUV
Chroma subsampling : 4:2:0
Bit depth : 8 bits
Scan type : Progressive
Bits/(Pixel*Frame) : 0.350
Stream size : 9.71 GiB (92%)
Writing library : x264 core 118 r2085 8a62835
Encoding settings : cabac=1 / ref=4 / deblock=1:-3:-3 / analyse=0x3:0x113 / me=umh / subme=11 / psy=1 / psy_rd=1.00:0.00 / mixed_ref=1 / me_range=32 / chroma_me=1 / trellis=2 / 8x8dct=1 / cqm=0 / deadzone=21,11 / fast_pskip=0 / chroma_qp_offset=-2 / threads=12 / sliced_threads=0 / nr=0 / decimate=0 / interlaced=0 / bluray_compat=0 / constrained_intra=0 / bframes=10 / b_pyramid=2 / b_adapt=2 / b_bias=0 / direct=3 / weightb=1 / open_gop=0 / weightp=2 / keyint=250 / keyint_min=24 / scenecut=40 / intra_refresh=0 / rc=2pass / mbtree=0 / bitrate=13143 / ratetol=1.0 / qcomp=0.60 / qpmin=0 / qpmax=69 / qpstep=4 / cplxblur=20.0 / qblur=0.5 / ip_ratio=1.40 / pb_ratio=1.30 / aq=1:1.00
Language : French
Color primaries : BT.709-5, BT.1361, IEC 61966-2-4, SMPTE RP177
Transfer characteristics : BT.709-5, BT.1361
Matrix coefficients : BT.709-5, BT.1361, IEC 61966-2-4 709, SMPTE RP177

Audio #1
ID : 2
Format : AC-3
Format/Info : Audio Coding 3
Mode extension : CM (complete main)
Codec ID : A_AC3
Duration : 1h 48mn
Bit rate mode : Constant
Bit rate : 384 Kbps
Channel(s) : 6 channels
Channel positions : Front: L C R, Side: L R, LFE
Sampling rate : 48.0 KHz
Bit depth : 16 bits
Compression mode : Lossy
Stream size : 297 MiB (3%)
Title : Dub AC3 6ch 384kbps
Language : French

Audio #2
ID : 3
Format : AC-3
Format/Info : Audio Coding 3
Mode extension : CM (complete main)
Codec ID : A_AC3
Duration : 1h 48mn
Bit rate mode : Constant
Bit rate : 384 Kbps
Channel(s) : 6 channels
Channel positions : Front: L C R, Side: L R, LFE
Sampling rate : 48.0 KHz
Bit depth : 16 bits
Compression mode : Lossy
Stream size : 297 MiB (3%)
Title : Original AC3 6ch 384kbps
Language : French

Text
ID : 4
Format : UTF-8
Codec ID : S_TEXT/UTF8
Codec ID/Info : UTF-8 Plain Text
Language : Russian

Menu
00:00:00.000 : fr:(безымянный)
00:04:27.375 : fr:(безымянный)
00:09:58.291 : fr:(безымянный)
00:13:53.666 : fr:(безымянный)
00:19:14.125 : fr:(безымянный)
00:24:49.375 : fr:(безымянный)
00:31:04.083 : fr:(безымянный)
00:35:07.625 : fr:(безымянный)
00:38:57.833 : fr:(безымянный)
00:42:57.083 : fr:(безымянный)
00:46:00.625 : fr:(безымянный)
00:51:45.458 : fr:(безымянный)
00:58:06.375 : fr:(безымянный)
01:02:52.750 : fr:(безымянный)
01:08:53.458 : fr:(безымянный)
01:13:41.291 : fr:(безымянный)
01:18:28.791 : fr:(безымянный)
01:23:42.416 : fr:(безымянный)
01:30:48.833 : fr:(безымянный)
01:36:48.500 : fr:(безымянный)
01:40:47.125 : fr:(безымянный)
01:42:14.458 : fr:(безымянный)

Свернуть
_________________
Изображение
Не в сети
Профиль  
 Добавлено: 2011-11-11 16:02 (спустя 19 дней)
Аватара пользователя
Стаж: 6 лет 6 месяцев
Сообщений: 30
Спасибок: 2
Лайков: 1
неуходи с раздачи дай скачать фильм заранее благодарю !!!!!!!!!!!!!!
Не в сети
Профиль  
 Добавлено: 2012-03-15 11:05 (спустя 4 месяца 3 дня)
Стаж: 5 лет 9 месяцев
Сообщений: 40
Народ, дайте скорости, плиз, классику скачать :)
Не в сети
Профиль  
 Добавлено: 2012-03-16 16:16 (спустя 1 день 5 часов)
Стаж: 5 лет 9 месяцев
Сообщений: 40
а субтитры неотключаемые?
Не в сети
Профиль  
 Добавлено: 2012-03-16 18:05 (спустя 1 час 49 минут)
Стаж: 5 лет 9 месяцев
Сообщений: 40
Ура! Разобрался, спасибо за раздачу!
Не в сети
Профиль  
Начать новую темуОтветить на тему  [ Сообщений: 5 ] 
Вы не можете начинать темы
Вы не можете отвечать на сообщения
Вы не можете редактировать свои сообщения
Вы не можете удалять свои сообщения