Правила форума

  • В этом разделе создание новых тем Запрещено.
  • Для создания новых тем пользуйтесь Корневым разделом DVD и HD фильмы.
Начать новую темуОтветить на тему  [ 1 сообщение ] 
Торрент файл
Размер: 4.71 GB • Зарегистрирован: 3 года 9 месяцев • Статус: Проверено
Скачан: 176 раз • Желающих скачать: 0 • Поблагодарили: 51 раз
 Раздают: 0  |  0 KB/s  ]   Качают: 0  |  0 KB/s  ] 
 Полного источника не было 1 год 8 месяцев 
Сообщения
 Добавлено: 2013-02-17 09:40
DVD Release Group
Аватара пользователя
Стаж: 7 лет 1 месяц
Сообщений: 3558
Спасибок: 247239
Лайков: 1018
Астерикс и Обеликс в Британии

Asterix et Obelix: Au service de Sa Majeste


Изображение


Год выпуска: 2012
Страна: Венгрия , Испания , Италия , Франция
Жанр: Комедия, приключения, семейный
Продолжительность: 01:50:15
Перевод: Профессиональный (полное дублирование)
Субтитры: Нет
Режиссер: Лоран Тирар
В ролях: Жерар Депардье, Эдуард Баэр, Гийом Гальенн, Венсан Лакост, Валери Лемерсье, Фабрис Лукини, Катрин Денёв, Шарлотта Лебон, Боли Ланнерс, Дэни Бун
Описание: Пятидесятый год до нашей эры. Юлий Цезарь рвется к новым завоеваниям. Во главе своих прославленных легионов он собирается захватить остров, который находится на самом краю света — таинственную страну, именуемую Британией. Войско Цезаря одерживает быструю и безоговорочную победу. Ну… почти безоговорочную: одна крошечная деревушка продолжает яростно обороняться, однако силы на исходе, и королева бриттов Корделия отправляет офицера Красовакса за подмогой в Галлию. Когда к галлам приезжает Красовакс, те снабжают его бочонком своего знаменитого волшебного зелья, а Астерикс и Обеликс отправляются вместе с ним в Британию. Гадорикса они тоже берут с собой, ведь путешествие — отличный способ пополнить образование молодого человека. Но, к сожалению, все идет не так, как задумывалось…
Изображение
Sample:
http://multi-up.com/832134
Дополнительно: Сохранены оригинальные чаптеры, как на Blu-Ray.
Качество: BDRip 720p
Формат: MKV
Видео кодек: H.264
Аудио кодек: AC3, DTS
Видео: 1280x536 23,98fps 4165kbps 0.253bit/pixel
Аудио:
Аудио Rus: AC3 48kHz 6ch 448kbps
Аудио Fra: DTS 48kHz 6ch 1510kbps
"MediaInfo"
Формат : Matroska
Версия формата : Version 2
Размер файла : 4,71 Гбайт
Продолжительность : 1 ч. 50 м.
Общий поток : 6120 Кбит/сек
Дата кодирования : UTC 2013-02-16 09:48:11
Программа кодирования : mkvmerge v5.5.0 ('Healer') built on Apr 6 2012 21:43:24
Библиотека кодирования : libebml v1.2.3 + libmatroska v1.3.0

Видео
Идентификатор : 1
Формат : AVC
Формат/Информация : Advanced Video Codec
Профиль формата : High@L4.1
Параметр CABAC формата : Да
Параметр ReFrames формата : 5 кадров
Режим смешивания : Header stripping
Идентификатор кодека : V_MPEG4/ISO/AVC
Продолжительность : 1 ч. 50 м.
Битрейт : 4165 Кбит/сек
Ширина : 1280 пикселей
Высота : 536 пикселей
Соотношение сторон : 2,40:1
Частота кадров : 23,976 кадра/сек
Цветовое пространство : YUV
Субдискретизация насыщенности : 4:2:0
Битовая глубина : 8 бит
Тип развёртки : Прогрессивная
Бит/(Пиксели*Кадры) : 0.253
Размер потока : 3,11 Гбайт (66%)
Библиотека кодирования : x264 core 129 r2230 1cffe9f
Настройки программы : cabac=1 / ref=5 / deblock=1:0:0 / analyse=0x3:0x113 / me=umh / subme=8 / psy=1 / psy_rd=1.00:0.00 / mixed_ref=1 / me_range=16 / chroma_me=1 / trellis=1 / 8x8dct=1 / cqm=0 / deadzone=21,11 / fast_pskip=1 / chroma_qp_offset=-2 / threads=12 / lookahead_threads=2 / sliced_threads=0 / nr=0 / decimate=1 / interlaced=0 / bluray_compat=0 / constrained_intra=0 / bframes=3 / b_pyramid=2 / b_adapt=2 / b_bias=0 / direct=3 / weightb=1 / open_gop=0 / weightp=2 / keyint=240 / keyint_min=24 / scenecut=40 / intra_refresh=0 / rc_lookahead=50 / rc=2pass / mbtree=1 / bitrate=4165 / ratetol=1.0 / qcomp=0.60 / qpmin=0 / qpmax=69 / qpstep=4 / cplxblur=20.0 / qblur=0.5 / ip_ratio=1.40 / aq=1:1.00
Язык : English
Default : Да
Forced : Нет

Аудио #1
Идентификатор : 2
Формат : AC-3
Формат/Информация : Audio Coding 3
Расширение режима : CM (complete main)
Идентификатор кодека : A_AC3
Продолжительность : 1 ч. 50 м.
Вид битрейта : Постоянный
Битрейт : 448 Кбит/сек
Каналы : 6 каналов
Расположение каналов : Front: L C R, Side: L R, LFE
Частота : 48,0 КГц
Битовая глубина : 16 бит
Метод сжатия : С потерями
Размер потока : 353 Мбайт (7%)
Язык : Russian
Default : Да
Forced : Нет

Аудио #2
Идентификатор : 3
Формат : DTS
Формат/Информация : Digital Theater Systems
Режим смешивания : Header stripping
Идентификатор кодека : A_DTS
Продолжительность : 1 ч. 50 м.
Вид битрейта : Постоянный
Битрейт : 1510 Кбит/сек
Каналы : 6 каналов
Расположение каналов : Front: L C R, Side: L R, LFE
Частота : 48,0 КГц
Битовая глубина : 24 бит
Метод сжатия : С потерями
Размер потока : 1,16 Гбайт (25%)
Заголовок : French DTS 1509kbps
Язык : French
Default : Нет
Forced : Нет

Меню
00:00:00.000 : en:00:00:00.000
00:06:09.286 : en:00:06:09.286
00:15:17.708 : en:00:15:17.708
00:20:36.068 : en:00:20:36.068
00:30:28.243 : en:00:30:28.243
00:36:35.068 : en:00:36:35.068
00:44:20.825 : en:00:44:20.825
00:49:12.408 : en:00:49:12.408
00:54:29.433 : en:00:54:29.433
01:02:22.447 : en:01:02:22.447
01:09:49.143 : en:01:09:49.143
01:15:12.633 : en:01:15:12.633
01:19:55.833 : en:01:19:55.833
01:26:46.410 : en:01:26:46.410
01:37:37.351 : en:01:37:37.351
01:43:43.968 : en:01:43:43.968
Свернуть

"Скриншоты"
Изображение
Изображение
Изображение
Изображение
Свернуть
В сети
Профиль  
Начать новую темуОтветить на тему  [ 1 сообщение ] 
Вы не можете начинать темы
Вы не можете отвечать на сообщения
Вы не можете редактировать свои сообщения
Вы не можете удалять свои сообщения