Правила форума

  • В этом разделе создание новых тем Запрещено.
  • Для создания новых тем пользуйтесь Корневым разделом DVD и HD фильмы.
Начать новую темуОтветить на тему  [ 1 сообщение ] 
Торрент файл
Размер: 21.05 GB • Зарегистрирован: 2 года 10 месяцев • Статус: Проверено
Скачан: 0 раз • Желающих скачать: 0 • Поблагодарили: 8 раз
 Раздают: 0  |  0 KB/s  ]   Качают: 0  |  0 KB/s  ] 
 Полного источника не было 2 года 10 месяцев 
Сообщения
 Добавлено: 2014-01-16 02:18
Аватара пользователя
Стаж: 8 лет 3 месяца
Возраст: 27
Сообщений: 67
Спасибок: 134
Лайков: 1
Астрал 2 / Insidious: Chapter 2

Изображение


Год выпуска: 2013
Страна: США
Слоган: «Он вернулся за тобой»
Жанр: Ужасы, триллер
Продолжительность: 01:45:52
Перевод: Профессиональный (дубляж)
Субтитры: Английские

Режиссёр: Джеймс Ван
Сценарист: Ли Уоннелл, Джеймс Ван
Продюсер: Джейсон Блум, Жанетт Брилл, Лия Буман, ...
Оператор: Джон Р. Леонетти
Композитор: Джозеф Бишара
В ролях: Патрик Уилсон, Роуз Бирн, Лин Шэй, Тай Симпкинс, Барбара Хёрши, Стив Култер, Ли Уоннелл, Энгус Сэмпсон, Эндрю Эстор, Хэнк Харрис
Описание: Семья Ламберт стремится раскрыть тайну, из-за которой они оказались в опасной связи с миром духов…
Рейтинг MPAA: Рейтинг PG-13 (Дети до 13 лет допускаются на фильм только с родителями)
Мировая премьера: 13 сентября 2013
Премьера в России: 3 октября 2013
Бюджет: $5 000 000
Кассовые сборы: $161 111 107
Изображение

Качество: BDRemux 1080p
Формат: MKV
Видео: MPEG-4 AVC, 25231 Кбит/с, 1920x1080, 23.976 кадр/с
Видео кодек: AVC
Аудио кодек: AC3 (Dolby Digital)
Видео: MPEG-4 AVC, 25231 Кбит/с, 1920x1080, 23.976 кадр/с
Аудио #1: Русский (AC3, 6 ch, 448 Кбит/с) - Дублированный (чистый звук)
Аудио #2: Русский (AC3, 6 ch, 640 Кбит/с) - Любительский одноголосый (VANO)
Аудио #3: Английский (DTS-HD MA, 6 ch, 2139 Кбит/с)
Субтитры: Английские
BDInfo
Формат : Matroska
Версия формата : Version 2
Размер файла : 21,0 Гбайт
Продолжительность : 1 ч. 45 м.
Режим общего битрейта : Переменный
Общий поток : 28,5 Мбит/сек
Название фильма : Астрал: Глава 2.2013.Сборка: ollan
Дата кодирования : UTC 2013-12-11 07:59:03
Программа кодирования : mkvmerge v5.6.0 ('Kenya Kane') built on May 27 2012 16:44:04
Библиотека кодирования : libebml v1.2.3 + libmatroska v1.3.0

Видео
Идентификатор : 1
Формат : AVC
Формат/Информация : Advanced Video Codec
Профиль формата : High@L4.1
Параметр CABAC формата : Да
Параметр ReFrames формата : 2 кадра
Идентификатор кодека : V_MPEG4/ISO/AVC
Продолжительность : 1 ч. 45 м.
Вид битрейта : Переменный
Ширина : 1920 пикселей
Высота : 1080 пикселей
Соотношение сторон : 16:9
Режим частоты кадров : Постоянный
Частота кадров : 23,976 кадра/сек
Цветовое пространство : YUV
Субдискретизация насыщенности : 4:2:0
Битовая глубина : 8 бит
Тип развёртки : Прогрессивная
Язык : English
Default : Да
Forced : Нет

Аудио #1
Идентификатор : 2
Формат : AC-3
Формат/Информация : Audio Coding 3
Расширение режима : CM (complete main)
Параметр Endianness формата : Big
Идентификатор кодека : A_AC3
Продолжительность : 1 ч. 45 м.
Вид битрейта : Постоянный
Битрейт : 448 Кбит/сек
Каналы : 6 каналов
Расположение каналов : Front: L C R, Side: L R, LFE
Частота : 48,0 КГц
Битовая глубина : 16 бит
Метод сжатия : С потерями
Размер потока : 339 Мбайт (2%)
Заголовок : Дублированный (Чистый звук)
Язык : Russian
Default : Да
Forced : Да

Аудио #2
Идентификатор : 3
Формат : AC-3
Формат/Информация : Audio Coding 3
Расширение режима : CM (complete main)
Параметр Endianness формата : Big
Идентификатор кодека : A_AC3
Продолжительность : 1 ч. 45 м.
Вид битрейта : Постоянный
Битрейт : 640 Кбит/сек
Каналы : 6 каналов
Расположение каналов : Front: L C R, Side: L R, LFE
Частота : 48,0 КГц
Битовая глубина : 16 бит
Метод сжатия : С потерями
Размер потока : 485 Мбайт (2%)
Заголовок : Любительский одноголосный (VANO)
Язык : Russian
Default : Нет
Forced : Нет

Аудио #3
Идентификатор : 4
Формат : DTS
Формат/Информация : Digital Theater Systems
Профиль формата : MA / Core
Режим : 16
Параметр Endianness формата : Big
Идентификатор кодека : A_DTS
Продолжительность : 1 ч. 45 м.
Вид битрейта : Переменный
Битрейт : Неизвестно / 1509 Кбит/сек
Каналы : 6 каналов
Расположение каналов : Front: L C R, Side: L R, LFE
Частота : 48,0 КГц
Битовая глубина : 16 бит
Метод сжатия : Без потерь / Lossy
Язык : English
Default : Нет
Forced : Нет

Текст
Идентификатор : 5
Формат : UTF-8
Идентификатор кодека : S_TEXT/UTF8
Идентификатор кодека/Информация : UTF-8 Plain Text
Язык : English
Default : Нет
Forced : Нет

Меню
00:00:00.000 : en:00:00:00.000
00:12:45.890 : en:00:12:45.890
00:22:22.967 : en:00:22:22.967
00:26:03.228 : en:00:26:03.228
00:30:09.224 : en:00:30:09.224
00:37:31.583 : en:00:37:31.583
00:42:46.314 : en:00:42:46.314
00:48:49.468 : en:00:48:49.468
00:56:11.702 : en:00:56:11.702
00:59:41.661 : en:00:59:41.661
01:05:57.579 : en:01:05:57.579
01:14:33.344 : en:01:14:33.344
01:21:37.351 : en:01:21:37.351
01:27:31.413 : en:01:27:31.413
01:33:33.858 : en:01:33:33.858
01:38:59.433 : en:01:38:59.433
Свернуть
Скриншоты
Изображение
Изображение
Изображение
Изображение
Изображение
Свернуть
Не в сети
Профиль  
Начать новую темуОтветить на тему  [ 1 сообщение ] 
Вы не можете начинать темы
Вы не можете отвечать на сообщения
Вы не можете редактировать свои сообщения
Вы не можете удалять свои сообщения