Правила форума

  • В этом разделе создание новых тем Запрещено.
  • Для создания новых тем пользуйтесь Корневым разделом DVD и HD фильмы.
Начать новую темуОтветить на тему  [ 1 сообщение ] 
Торрент файл
Размер: 7.91 GB • Зарегистрирован: 1 год 2 месяца • Статус: Проверено
Скачан: 91 раз • Желающих скачать: 0 • Поблагодарили: 16 раз
 Раздают: 0  |  0 KB/s  ]   Качают: 0  |  0 KB/s  ] 
 Полного источника не было 3 часа 
Сообщения
 Добавлено: 2015-09-19 19:12
RG-ELEKTRO
Аватара пользователя
Стаж: 2 года 3 месяца
Сообщений: 7928
Спасибок: 53739
Лайков: 3304
Астрал 3 / Insidious: Chapter 3


Изображение



Год выпуска: 2015
Страна: Канада, США (Automatik Entertainment, Blumhouse Productions, Entertainment One)
Жанр: ужасы
Продолжительность: 01:37:20
Перевод: Профессиональный (дубляж) [iTunes]

Режиссёр: Ли Уоннелл
В ролях: Стефани Скотт, Дермот Малруни, Энгус Сэмпсон, Ли Уоннелл, Лин Шэй, Тейт Берни, Майкл Рид МакКей, Стив Култер, Хейли Кийоко, Корбетт Так
Описание: История о том, как одаренный экстрасенс Элис Рейнер неохотно соглашается использовать свои способности для установления связи с мертвыми, чтобы помочь девочке-подростку, которая стала мишенью для опасной сверхъестественной сущности.
Изображение Изображение
Качество: BDRip 1080p
Формат: MKV
Видео кодек: MPEG-4 AVC
Аудио кодек: AC3 / DTS
Видео: MPEG-4 AVC, 1920x808, 9 737 Kbps, 23.976fps
Аудио #1: AC3, 6 ch, 384 Кбит/с [Профессиональный (дубляж)]
Аудио #2: Eng, DTS, 1510 kb/s (6 ch), 48 kHz
Субтитры: Русские (форс,полные), Украинские, Английские

"MI"
General
Unique ID : 207516276247183543612216685811727769875 (0x9C1E2E5874849733AFF0060F5356A113)
Complete name : D:RipsInsidious.Chapter.3.2015.BDRip.1080p.mkv
Format : Matroska
Format version : Version 2
File size : 7.91 GiB
Duration : 1h 37mn
Overall bit rate : 11.6 Mbps
Encoded date : UTC 2015-09-19 09:38:16
Writing application : mkvmerge v4.0.0 ('The Stars were mine') сборка от Jun 6 2010 16:18:42
Writing library : libebml v1.0.0 + libmatroska v1.0.0

Video
ID : 1
Format : AVC
Format/Info : Advanced Video Codec
Format profile : High@L4.1
Format settings, CABAC : Yes
Format settings, ReFrames : 5 frames
Codec ID : V_MPEG4/ISO/AVC
Duration : 1h 37mn
Bit rate : 9 737 Kbps
Width : 1 920 pixels
Height : 808 pixels
Display aspect ratio : 2.40:1
Frame rate mode : Constant
Frame rate : 23.976 fps
Color space : YUV
Chroma subsampling : 4:2:0
Bit depth : 8 bits
Scan type : Progressive
Bits/(Pixel*Frame) : 0.262
Stream size : 6.47 GiB (82%)
Writing library : x264 core 148 r2597 e86f3a1
Encoding settings : cabac=1 / ref=5 / deblock=1:0:0 / analyse=0x3:0x133 / me=umh / subme=7 / psy=1 / psy_rd=1.00:0.00 / mixed_ref=1 / me_range=16 / chroma_me=1 / trellis=1 / 8x8dct=1 / cqm=0 / deadzone=21,11 / fast_pskip=0 / chroma_qp_offset=-2 / threads=25 / lookahead_threads=4 / sliced_threads=0 / nr=0 / decimate=1 / interlaced=0 / bluray_compat=0 / constrained_intra=0 / bframes=3 / b_pyramid=2 / b_adapt=1 / b_bias=0 / direct=1 / weightb=1 / open_gop=0 / weightp=2 / keyint=250 / keyint_min=23 / scenecut=40 / intra_refresh=0 / rc_lookahead=40 / rc=2pass / mbtree=1 / bitrate=9737 / ratetol=1.0 / qcomp=0.60 / qpmin=0 / qpmax=69 / qpstep=4 / cplxblur=20.0 / qblur=0.5 / ip_ratio=1.40 / aq=1:1.00
Language : English
Default : No
Forced : No

Audio #1
ID : 2
Format : AC-3
Format/Info : Audio Coding 3
Mode extension : CM (complete main)
Format settings, Endianness : Big
Codec ID : A_AC3
Duration : 1h 37mn
Bit rate mode : Constant
Bit rate : 384 Kbps
Channel(s) : 6 channels
Channel positions : Front: L C R, Side: L R, LFE
Sampling rate : 48.0 KHz
Bit depth : 16 bits
Compression mode : Lossy
Delay relative to video : 1s 0ms
Stream size : 267 MiB (3%)
Title : DUB iTunes
Language : Russian
Default : Yes
Forced : Yes

Audio #2
ID : 3
Format : DTS
Format/Info : Digital Theater Systems
Mode : 16
Format settings, Endianness : Big
Codec ID : A_DTS
Duration : 1h 37mn
Bit rate mode : Constant
Bit rate : 1 509 Kbps
Channel(s) : 6 channels
Channel positions : Front: L C R, Side: L R, LFE
Sampling rate : 48.0 KHz
Bit depth : 24 bits
Compression mode : Lossy
Delay relative to video : 11ms
Stream size : 1.03 GiB (13%)
Language : English
Default : No
Forced : No

Text #1
ID : 4
Format : UTF-8
Codec ID : S_TEXT/UTF8
Codec ID/Info : UTF-8 Plain Text
Title : Forced iTunes
Language : Russian
Default : Yes
Forced : Yes

Text #2
ID : 5
Format : UTF-8
Codec ID : S_TEXT/UTF8
Codec ID/Info : UTF-8 Plain Text
Title : Full iTunes
Language : Russian
Default : No
Forced : No

Text #3
ID : 6
Format : UTF-8
Codec ID : S_TEXT/UTF8
Codec ID/Info : UTF-8 Plain Text
Title : Full iTunes
Language : Ukrainian
Default : No
Forced : No

Text #4
ID : 7
Format : UTF-8
Codec ID : S_TEXT/UTF8
Codec ID/Info : UTF-8 Plain Text
Title : Full
Language : English
Default : No
Forced : No

Menu
00:00:00.000 : en:00:00:00.000
00:11:02.620 : en:00:11:02.620
00:15:10.243 : en:00:15:10.243
00:20:14.380 : en:00:20:14.380
00:26:15.532 : en:00:26:15.532
00:33:00.979 : en:00:33:00.979
00:38:09.329 : en:00:38:09.329
00:41:51.134 : en:00:41:51.134
00:45:27.266 : en:00:45:27.266
00:49:39.894 : en:00:49:39.894
00:54:36.732 : en:00:54:36.732
01:01:02.450 : en:01:01:02.450
01:05:06.444 : en:01:05:06.444
01:11:54.769 : en:01:11:54.769
01:16:33.589 : en:01:16:33.589
01:27:24.239 : en:01:27:24.239
Свернуть

Скриншоты
Изображение
Изображение
Изображение
Свернуть
Изображение


Изображение Изображение
_________________
Не ищите меня в "ВКонтакте", в "Одноклассниках" меня нет - я на трекерах сижу!
Не в сети
Профиль  
Начать новую темуОтветить на тему  [ 1 сообщение ] 
Вы не можете начинать темы
Вы не можете отвечать на сообщения
Вы не можете редактировать свои сообщения
Вы не можете удалять свои сообщения