Правила форума

  • В этом разделе создание новых тем Запрещено.
  • Для создания новых тем пользуйтесь Корневым разделом DVD и HD фильмы.
Начать новую темуОтветить на тему  [ Сообщений: 4 ] 
Торрент файл
Размер: 8.99 GB • Зарегистрирован: 5 лет 5 месяцев • Статус: Проверено
Скачан: 322 раза • Желающих скачать: 2 • Поблагодарили: 71 раз
 Раздают: 0  |  0 KB/s  ]   Качают: 0  |  0 KB/s  ] 
 Полного источника не было 3 месяца 3 дня 
Сообщения
 Добавлено: 2011-06-19 13:28
Модератор
Аватара пользователя
Стаж: 8 лет 1 месяц
Возраст: 20
Сообщений: 32130
Спасибок: 98564
Лайков: 80
Изображение

Астрал / Insidious


Год выпуска: 2010
Страна: США
Слоган: «Это не дом населён призраками...»

Жанр: ужасы, триллер
Продолжительность: 01:42:21
Озвучивание: Дублированное [лицензия]

Режиссер: Джеймс Ван
В ролях: Патрик Уилсон, Роуз Бирн, Ти Кигэн Симпкинс, Эндрю Эстор, Лин Шэй, Ли Уоннелл, Энгус Сэмпсон, Барбара Херши, Корбетт Так

Бюджет: $1 000 000
Сборы в США: $53 309 212
Сборы в России: $3 891 243
Сборы в мире: $75 909 212

Мировая премьера: 31 марта 2011
Релиз на DVD: 28 апреля 2011, «New Dream media», «Новый Диск»
Релиз на Blu-ray: 16 июня 2011, «New Dream media», «Новый Диск»
Описание: Джош и Рене переезжают со своими детьми в новый дом, но не успевают толком распаковать вещи, как начинаются странные события. Необъяснимо перемещаются предметы, в детской звучат странные звуки... Но в настоящий ужас приходят родители, когда их десятилетний сын Далтон впадает в кому. Все усилия врачей в больнице помочь мальчику безуспешны.
Несколько месяцев спустя его возвращают домой, где за несчастным ребенком ухаживают мать и сиделка. Но загадочные явления в доме продолжаются. Отчаявшиеся родители готовы обратиться за помощью к кому угодно и вскоре выясняется, что Далтон в бессознательном состоянии связан с паранормальным миром...
Изображение
MPAA: Изображение - Детям до 13 лет просмотр не желателен
Качество: BDRip 1080p R5
Формат: Matroska

Видео: 9559 kb/s, 1920x800, 23,976 кадр/сек
Аудио: Russian / English: DTS, 1510 kb/s (6 ch)
Субтитры: нет
Изображение
Релиз группы: Изображение
Знаете ли Вы, что...
  • В середине фильма, в сцене в школе за спиной Джоша на доске нарисован Билли - кукла из фильмов «Пила» которые так же когда-то сняли Ли Уоннел и Джеймс Ван.
Свернуть
MediaInfo
Общее
Полное имя                       : Insidious.BDRip 1080p.FSB.mkv
Формат                           : Matroska
Размер файла                     : 8,99 Гбайт
Продолжительность                : 1 ч. 42 м.
Общий поток                      : 12,6 Мбит/сек
Название фильма                  : Insidious.BDRip 1080p.FSB
Дата кодирования                 : UTC 2011-06-18 23:00:39
Программа кодирования            : mkvmerge v4.8.0 ('I Got The...') сборка от May 24 2011 03:12:58
Библиотека кодирования           : libebml v1.2.0 + libmatroska v1.1.0

Видео
Идентификатор                    : 1
Формат                           : AVC
Формат/Информация                : Advanced Video Codec
Профиль формата                  : High@L4.1
Параметр CABAC формата           : Да
Параметр ReFrames формата        : 5 кадров
Параметры GOP формата            : M=1, N=17
Режим смешивания                 : Header stripping
Идентификатор кодека             : V_MPEG4/ISO/AVC
Продолжительность                : 1 ч. 42 м.
Битрейт                          : 9559 Кбит/сек
Ширина                           : 1920 пикс.
Высота                           : 800 пикс.
Соотношение сторон               : 2,40:1
Частота кадров                   : 23,976 кадр/сек
Цветовое пространство            : YUV
Подвыборка цветности             : 4:2:0
Битовая глубина                  : 8 бит
Тип развёртки                    : Прогрессивная
Бит/(Пиксели*Кадры)              : 0.260
Размер потока                    : 6,65 Гбайт (74%)
Заголовок                        : Insidious.BDRip 1080p.FSB
Библиотека кодирования           : x264 core 115 r1995 c1e60b9
Настройки программы              : cabac=1 / ref=5 / deblock=1:-3:-3 / analyse=0x3:0x133 / me=umh / subme=9 / psy=1 / psy_rd=1.05:0.10 / mixed_ref=1 / me_range=64 / chroma_me=1 / trellis=2 / 8x8dct=1 / cqm=0 / deadzone=21,11 / fast_pskip=1 / chroma_qp_offset=-3 / threads=6 / sliced_threads=0 / nr=0 / decimate=1 / interlaced=0 / bluray_compat=0 / constrained_intra=0 / bframes=6 / b_pyramid=2 / b_adapt=1 / b_bias=0 / direct=1 / weightb=1 / open_gop=0 / weightp=2 / keyint=250 / keyint_min=23 / scenecut=40 / intra_refresh=0 / rc_lookahead=40 / rc=2pass / mbtree=1 / bitrate=9559 / ratetol=1.0 / qcomp=0.60 / qpmin=0 / qpmax=69 / qpstep=4 / cplxblur=20.0 / qblur=0.5 / ip_ratio=1.40 / aq=1:1.00
Язык                             : English

Аудио #1
Идентификатор                    : 2
Формат                           : DTS
Формат/Информация                : Digital Theater Systems
Режим смешивания                 : Header stripping
Идентификатор кодека             : A_DTS
Продолжительность                : 1 ч. 42 м.
Вид битрейта                     : Постоянный
Битрейт                          : 1510 Кбит/сек
Каналы                           : 6 каналов
Расположение каналов             : Front: L C R, Side: L R, LFE
Частота                          : 48,0 КГц
Битовая глубина                  : 24 бит
Метод сжатия                     : С потерями
Размер потока                    : 1,08 Гбайт (12%)
Заголовок                        : Rus.DTS.Insidious.FSB
Язык                             : Russian

Аудио #2
Идентификатор                    : 3
Формат                           : DTS
Формат/Информация                : Digital Theater Systems
Режим смешивания                 : Header stripping
Идентификатор кодека             : A_DTS
Продолжительность                : 1 ч. 42 м.
Вид битрейта                     : Постоянный
Битрейт                          : 1510 Кбит/сек
Каналы                           : 6 каналов
Расположение каналов             : Front: L C R, Side: L R, LFE
Частота                          : 48,0 КГц
Битовая глубина                  : 24 бит
Метод сжатия                     : С потерями
Размер потока                    : 1,08 Гбайт (12%)
Заголовок                        : Eng.DTS.Insidious.FSB
Язык                             : English
Свернуть
Скриншоты
Изображение
Изображение
Изображение
Свернуть
Не в сети
Профиль  
 Добавлено: 2012-12-10 16:59 (спустя 1 год 5 месяцев)
Стаж: 5 лет 5 месяцев
Сообщений: 27
скорости бы
Не в сети
Профиль  
 Добавлено: 2013-02-18 10:53 (спустя 2 месяца 7 дней)
Стаж: 7 лет 3 месяца
Сообщений: 8
че то очень медленно
Не в сети
Профиль  
 Добавлено: 2013-02-19 18:47 (спустя 1 день 7 часов)
Аватара пользователя
Стаж: 7 лет 6 месяцев
Возраст: 32
Сообщений: 70
Спасибок: 124
Фильм понравился, давно такого не смотрел, чисто психологическая давка, никакой блевотины. Но чудики всё же забавные, призраки ряженые, чёртик рисованый (прям из вечеров на хуторе близ диканьки) :-D
В сети
Профиль  
Начать новую темуОтветить на тему  [ Сообщений: 4 ] 
Вы не можете начинать темы
Вы не можете отвечать на сообщения
Вы не можете редактировать свои сообщения
Вы не можете удалять свои сообщения