Правила форума

  • В этом разделе создание новых тем Запрещено.
  • Для создания новых тем пользуйтесь Корневым разделом DVD и HD фильмы.
Начать новую темуОтветить на тему  [ Сообщений: 2 ] 
Торрент файл
Размер: 3.96 GB • Зарегистрирован: 4 года 6 месяцев • Статус: Проверено
Скачан: 77 раз • Желающих скачать: 0 • Поблагодарили: 25 раз
 Раздают: 0  |  0 KB/s  ]   Качают: 0  |  0 KB/s  ] 
 Полного источника не было 1 год 8 месяцев 
Сообщения
 Добавлено: 2012-06-07 23:59
Модератор
Аватара пользователя
Стаж: 6 лет 10 месяцев
Возраст: 33
Сообщений: 5908
Спасибок: 61265
Лайков: 3540
Изображение

Атлант расправил плечи / Atlas Shrugged: Part I


Год выпуска: 2011
Страна: США
Слоган: «Who is John Galt?»
Жанр: фантастика, драма, детектив
Продолжительность: 01:37:07
Перевод: Профессиональный (многоголосый, закадровый)
Режиссер: Пол Йоханссон
Сценарий: Джон Аглиалоро, Брайан Патрик О’Тул, Айн Рэнд
Продюсер: Джон Аглиалоро, Хэрмон Каслоу, Ховард Болдуин
Оператор: Росс Берриман
Композитор: Элиа Кмирал
В ролях: Тейлор Шиллинг, Эди Гатеги, Патрик Фишлер, Пол Йоханссон, Армин Шимерман, Джон Полито, Джеффри Пирсон, Майкл О’Киф, Мэттью Мэрсден, Грант Боулер
Бюджет: $15 000 000
Сборы в США: $4 627 375
Описание: «Атлант расправил плечи» рассказывает о приходе социалистов к власти во всем мире. Начинаются гонения на крупный бизнес, свободный рынок уступает позиции плановой экономике, Америка постепенно погружается в хаос и тьму. Главные герои - владелица железнодорожной компании Дэгни Таггерт и глава металлургических заводов Хэнк Реардэн пытаются противостоять новым устоям.
Изображение
MPAA: Изображение
Мировая премьера: 15 апреля 2011
Релиз на DVD: 6 июня 2012, «Кармен Видео»
Раздача группы: Изображение
Качество: BDRip, 720p
Формат: Matroska
Видео: AVC; 1280x544 (2.35:1); 3826 Kbps; 23,976 fps; 0,229 bit/pixel
Аудио №1: Russian; AC3; 384 Kbps; CBR; 6 ch
Аудио №2: DTS; 1509 Kbps; CBR; 6 ch; 24 bit
Оригинал
Субтитры №1: Russian
Субтитры №2:


"Знаете ли Вы, что..."
  • «Атлант расправил плечи» (англ. Atlas Shrugged) — роман Айн Рэнд, впервые опубликованный в 1957 году в США.
  • По опросам общественного мнения, проведённого в 1991 году Библиотекой Конгресса и книжным клубом «Book of the Month Club» в Америке «Атлант расправил плечи» — вторая после Библии книга, которая привела к переменам в жизни американских читателей.
Свернуть
MediaInfo
General
Complete name : Atlas Shrugged Part I.2011.P.BDRip.720p.mkv
Format : Matroska
Format version : Version 2
File size : 3.96 GiB
Duration : 1h 37mn
Overall bit rate : 5 836 Kbps
Encoded date : UTC 2012-06-06 18:02:19
Writing application : mkvmerge v4.9.1 ('Ich will') built on Jul 11 2011 23:53:15
Writing library : libebml v1.2.1 + libmatroska v1.1.1

Video
ID : 1
Format : AVC
Format/Info : Advanced Video Codec
Format profile : High@L4.1
Format settings, CABAC : Yes
Format settings, ReFrames : 12 frames
Codec ID : V_MPEG4/ISO/AVC
Duration : 1h 37mn
Bit rate : 3 999 Kbps
Width : 1 280 pixels
Height : 544 pixels
Display aspect ratio : 2.35:1
Frame rate : 23.976 fps
Color space : YUV
Chroma subsampling : 4:2:0
Bit depth : 8 bits
Scan type : Progressive
Bits/(Pixel*Frame) : 0.240
Stream size : 2.60 GiB (66%)
Writing library : x264 core 119 r2106 07efeb4
Encoding settings : cabac=1 / ref=12 / deblock=1:-3:-3 / analyse=0x3:0x133 / me=umh / subme=11 / psy=1 / psy_rd=0.90:0.01 / mixed_ref=1 / me_range=48 / chroma_me=1 / trellis=2 / 8x8dct=1 / cqm=0 / deadzone=21,11 / fast_pskip=0 / chroma_qp_offset=-3 / threads=12 / sliced_threads=0 / nr=0 / decimate=0 / interlaced=0 / bluray_compat=0 / constrained_intra=0 / bframes=9 / b_pyramid=2 / b_adapt=2 / b_bias=0 / direct=3 / weightb=1 / open_gop=0 / weightp=2 / keyint=240 / keyint_min=2 / scenecut=40 / intra_refresh=0 / rc=2pass / mbtree=0 / bitrate=3999 / ratetol=1.0 / qcomp=0.70 / qpmin=0 / qpmax=69 / qpstep=4 / cplxblur=20.0 / qblur=0.5 / ip_ratio=1.40 / pb_ratio=1.30 / aq=2:1.00
Language : English
Default : No
Forced : No

Audio #1
ID : 2
Format : AC-3
Format/Info : Audio Coding 3
Mode extension : CM (complete main)
Format settings, Endianness : Big
Codec ID : A_AC3
Duration : 1h 37mn
Bit rate mode : Constant
Bit rate : 384 Kbps
Channel(s) : 6 channels
Channel positions : Front: L C R, Side: L R, LFE
Sampling rate : 48.0 KHz
Bit depth : 16 bits
Compression mode : Lossy
Stream size : 267 MiB (7%)
Title : DD 5.1 @ 384 kbps - MVO, R5
Language : Russian
Default : Yes
Forced : Yes

Audio #2
ID : 3
Format : DTS
Format/Info : Digital Theater Systems
Codec ID : A_DTS
Duration : 1h 37mn
Bit rate mode : Constant
Bit rate : 1 510 Kbps
Channel(s) : 6 channels
Channel positions : Front: L C R, Side: L R, LFE
Sampling rate : 48.0 KHz
Bit depth : 24 bits
Compression mode : Lossy
Stream size : 1.02 GiB (26%)
Title : DTS 5.1 @ 1536 kbps
Language : English
Default : No
Forced : No

Text #1
ID : 4
Format : UTF-8
Codec ID : S_TEXT/UTF8
Codec ID/Info : UTF-8 Plain Text
Title : R5
Language : Russian
Default : No
Forced : No

Text #2
ID : 5
Format : UTF-8
Codec ID : S_TEXT/UTF8
Codec ID/Info : UTF-8 Plain Text
Language : English
Default : No
Forced : No

Свернуть

Скриншоты

Изображение
Изображение
Изображение
Изображение
Свернуть
_________________
ИзображениеИзображение Изображение
Изображение
 tany1984 и di-ys1 нравится это.
Не в сети
Профиль  
 Добавлено: 2013-05-16 22:43 (спустя 11 месяцев)
Аватара пользователя
Стаж: 8 лет 3 месяца
Сообщений: 65
Спасибок: 253
Классный фильм
Не в сети
Профиль  
Начать новую темуОтветить на тему  [ Сообщений: 2 ] 
Вы не можете начинать темы
Вы не можете отвечать на сообщения
Вы не можете редактировать свои сообщения
Вы не можете удалять свои сообщения