Правила форума

  • В этом разделе создание новых тем Запрещено.
  • Для создания новых тем пользуйтесь Корневым разделом DVD и HD фильмы.
Начать новую темуОтветить на тему  [ Сообщений: 7 ] 
Торрент файл
Размер: 5.58 GB • Зарегистрирован: 4 года 10 месяцев • Статус: Проверено
Скачан: 503 раза • Желающих скачать: 0 • Поблагодарили: 96 раз
 Раздают: 0  |  0 KB/s  ]   Качают: 0  |  0 KB/s  ] 
 Полного источника не было 2 года 
Сообщения
 Добавлено: 2012-01-14 18:13
Модератор
Аватара пользователя
Стаж: 8 лет
Сообщений: 1991
Спасибок: 129861
Лайков: 20
Атлантида: Конец мира, рождение легенды / Atlantis: End of a World, Birth of a Legend

Изображение
Год выпуска: 2011
Страна: Изображение США, Изображение Германия, Изображение Франция, Изображение Великобритания, Изображение ЮАР
Жанр: драма
Продолжительность:
01:28:46

Перевод: Профессиональный (полное дублирование) [Первый канал]

Режиссер: Тони Митчел
Сценарий: Ридиан Брук
Продюсер: Изабелль Хелле, Женев Хофмайер, Майкл Дж. Мосли, Ailsa Orr, Фиона Скотт
Оператор: Питер Гринхалг
Композитор: Ти Унвин

В ролях:
Стефани Леонидас (Pinaruti), Рис Ричи (Yishharu), Лэнгли Кирквуд (Rusa), Айседора Вервей (Bansabira), Натали Бекер (Ariad), Тони Капрари (Yidini), Инге Бекманн (High Priestess of Knossos, в титрах не указан), Дилан Эди (Stevedore, в титрах не указан), Вейн Харрисон (Foreman, в титрах не указан), George Jackos (Piteri, в титрах не указан), Бо Петерсен (Kitane, в титрах не указан), Мишель Скотт (Sick Woman, в титрах не указан)

Описание: Фильм о самом страшном стихийном бедствии античного мира, породившем миф об Атлантиде.


Изображение: 6.481 (70)


Доп. Информация

Мировая премьера: 8 мая 2011

Свернуть



Качество: BDRip 720p

Формат: MKV
Видео: AVC; 1280x720 (16:9); 7291 Kbps; 25 fps; 0,316 bpp
Аудио №1: Russian; AC3; 192 Kbps; CBR; 2 ch; 16 bit
Аудио №2: English; DTS; 1509 Kbps; CBR; 6 ch; 16 bit
Изображение


BDInfo

Код:

Формат : Matroska
Версия формата : Version 2
Размер файла : 5,58 Гбайт
Продолжительность : 1 ч. 28 м.
Общий поток : 8993 Кбит/сек
Дата кодирования : UTC 2012-01-12 17:44:48
Программа кодирования : mkvmerge v5.2.1 ('A Far Off Place') built on Jan 2 2012 23:21:10
Библиотека кодирования : libebml v1.2.3 + libmatroska v1.3.0
Видео
Идентификатор : 1
Формат : AVC
Формат/Информация : Advanced Video Codec
Профиль формата : High@L4.1
Параметр CABAC формата : Да
Параметр ReFrames формата : 9 кадров
Идентификатор кодека : V_MPEG4/ISO/AVC
Продолжительность : 1 ч. 28 м.
Битрейт : 7291 Кбит/сек
Ширина : 1280 пикселей
Высота : 720 пикселей
Соотношение сторон : 16:9
Частота кадров : 25,000 кадров/сек
Цветовое пространство : YUV
Субдискретизация насыщенности : 4:2:0
Битовая глубина : 8 бит
Тип развёртки : Прогрессивная
Бит/(Пиксели*Кадры) : 0.316
Размер потока : 4,41 Гбайт (79%)
Библиотека кодирования : x264 core 116 r2074 2641b9e
Настройки программы : cabac=1 / ref=9 / deblock=1:-3:-3 / analyse=0x3:0x133 / me=umh / subme=9 / psy=1 / psy_rd=1.05:0.10 / mixed_ref=1 / me_range=32 / chroma_me=1 / trellis=2 / 8x8dct=1 / cqm=0 / deadzone=21,11 / fast_pskip=0 / chroma_qp_offset=-3 / threads=6 / sliced_threads=0 / nr=0 / decimate=1 / interlaced=0 / bluray_compat=0 / constrained_intra=0 / bframes=6 / b_pyramid=2 / b_adapt=2 / b_bias=0 / direct=3 / weightb=1 / open_gop=0 / weightp=2 / keyint=250 / keyint_min=25 / scenecut=40 / intra_refresh=0 / rc_lookahead=50 / rc=2pass / mbtree=1 / bitrate=7291 / ratetol=1.0 / qcomp=0.60 / qpmin=0 / qpmax=69 / qpstep=4 / cplxblur=20.0 / qblur=0.5 / vbv_maxrate=50000 / vbv_bufsize=50000 / nal_hrd=none / ip_ratio=1.40 / aq=1:1.00
Default : Да
Forced : Нет
Аудио #1
Идентификатор : 2
Формат : AC-3
Формат/Информация : Audio Coding 3
Расширение режима : CM (complete main)
Идентификатор кодека : A_AC3
Продолжительность : 1 ч. 28 м.
Вид битрейта : Постоянный
Битрейт : 192 Кбит/сек
Каналы : 2 канала
Расположение каналов : Front: L R
Частота : 48,0 КГц
Битовая глубина : 16 бит
Метод сжатия : С потерями
Размер потока : 122 Мбайт (2%)
Заголовок : Дубляж
Язык : Russian
Default : Да
Forced : Нет
Аудио #2
Идентификатор : 3
Формат : DTS
Формат/Информация : Digital Theater Systems
Идентификатор кодека : A_DTS
Продолжительность : 1 ч. 28 м.
Вид битрейта : Постоянный
Битрейт : 1510 Кбит/сек
Каналы : 6 каналов
Расположение каналов : Front: L C R, Side: L R, LFE
Частота : 48,0 КГц
Битовая глубина : 16 бит
Метод сжатия : С потерями
Размер потока : 959 Мбайт (17%)
Язык : English
Default : Нет
Forced : Нет
Свернуть
Скриншоты

Изображение
Изображение
Изображение
Изображение
Свернуть

_________________
Себе ты можешь не качать, но раздавать другим обязан!
Не в сети
Профиль  
 Добавлено: 2012-01-15 11:06 (спустя 16 часов)
Стаж: 5 лет 4 месяца
Сообщений: 6
:'(
Не в сети
Профиль  
 Добавлено: 2012-01-15 11:29 (спустя 22 минуты)
Аватара пользователя
Стаж: 8 лет 7 месяцев
Сообщений: 155
Спасибок: 51
Лайков: 1
кто посмотрел отпишитесь
Не в сети
Профиль  
 Добавлено: 2012-01-16 12:02 (спустя 1 день)
Аватара пользователя
Стаж: 8 лет 7 месяцев
Сообщений: 314
Спасибок: 362
посмотрел полностью! но раза 3 хотелось выключить .... в принципе история с сюжетом... ну довольно интересно ... если не посмотрите то много не потеряеете
Не в сети
Профиль  
 Добавлено: 2012-01-16 18:24 (спустя 6 часов)
Аватара пользователя
Стаж: 9 лет 3 месяца
Возраст: 38
Сообщений: 201
Спасибок: 503
Лайков: 2
тема сисек не раскрыта
Не в сети
Профиль  
 Добавлено: 2012-01-17 01:51 (спустя 7 часов)
Стаж: 7 лет 3 месяца
Сообщений: 5
Спасибок: 15
не зацепило :ne_ne:
5,5 из 10
Не в сети
Профиль  
 Добавлено: 2012-01-19 13:24 (спустя 2 дня 11 часов)
Аватара пользователя
Стаж: 8 лет 7 месяцев
Сообщений: 55
Спасибок: 100
Лайков: 2
а че у них с головами на обложке? моча в голову ударила?
Не в сети
Профиль  
Начать новую темуОтветить на тему  [ Сообщений: 7 ] 
Вы не можете начинать темы
Вы не можете отвечать на сообщения
Вы не можете редактировать свои сообщения
Вы не можете удалять свои сообщения