Правила форума

  • В этом разделе создание новых тем Запрещено.
  • Для создания новых тем пользуйтесь Корневым разделом DVD и HD фильмы.
Начать новую темуОтветить на тему  [ Сообщений: 2 ] 
Торрент файл
Размер: 7.12 GB • Зарегистрирован: 2 года 9 месяцев • Статус: Проверено
Скачан: 50 раз • Желающих скачать: 0 • Поблагодарили: 12 раз
 Раздают: 0  |  0 KB/s  ]   Качают: 0  |  0 KB/s  ] 
 Полного источника не было 2 дня 3 часа 
Сообщения
 Добавлено: 2014-03-04 03:52
DVD Release Group
Аватара пользователя
Стаж: 7 лет 1 месяц
Сообщений: 3544
Спасибок: 246956
Лайков: 1018
Август

August: Osage County


Изображение


Год выпуска: 2013
Страна: США
Жанр: Драма
Продолжительность: 02:00:49
Перевод: Профессиональный (полное дублирование)
Субтитры: Английские
Режиссер: Джон Уэллс
В ролях: Мэрил Стрип, Джулия Робертс, Джулианна Николсон, Марго Мартиндейл, Эбигейл Бреслин, Юэн МакГрегор, Джульетт Льюис, Дермот Малруни, Сэм Шепард, Бенедикт Камбербэтч
Описание: Смешная до слез и грустная до боли история семьи. После таинственного исчезновения отца, три дочери со своими возлюбленными возвращаются в родной дом, чтобы поддержать мать и разыскать главу семейства.
Изображение Изображение
Качество: BDRip 720p
Формат: MKV
Видео кодек: H.264
Аудио кодек: DTS, AC3
Видео: 1280x538 23.98fps 4806kbps
Аудио:
Аудио Rus: AC3 48kHz 6ch 448kbps
Аудио Rus: DTS 48kHz 6ch 1510kbps
Аудио Eng: DTS 48kHz 6ch 1510kbps
"MediaInfo"
Формат : Matroska
Версия формата : Version 2
Размер файла : 7,12 Гбайт
Продолжительность : 2 ч. 0 м.
Общий поток : 8440 Кбит/сек
Дата кодирования : UTC 2014-03-03 21:56:13
Программа кодирования : mkvmerge v6.7.0 ('Back to the Ground') 64bit built on Jan 8 2014 15:10:52
Библиотека кодирования : libebml v1.3.0 + libmatroska v1.4.1

Видео
Идентификатор : 1
Формат : AVC
Формат/Информация : Advanced Video Codec
Профиль формата : High@L4.1
Параметр CABAC формата : Да
Параметр ReFrames формата : 5 кадров
Идентификатор кодека : V_MPEG4/ISO/AVC
Продолжительность : 2 ч. 0 м.
Битрейт : 4806 Кбит/сек
Ширина : 1280 пикселей
Высота : 538 пикселей
Соотношение сторон : 2,40:1
Режим частоты кадров : Постоянный
Частота кадров : 24,000 кадра/сек
Цветовое пространство : YUV
Субдискретизация насыщенности : 4:2:0
Битовая глубина : 8 бит
Тип развёртки : Прогрессивная
Бит/(Пиксели*Кадры) : 0.291
Размер потока : 4,06 Гбайт (57%)
Язык : English
Default : Да
Forced : Нет

Аудио #1
Идентификатор : 2
Формат : DTS
Формат/Информация : Digital Theater Systems
Режим : 16
Параметр Endianness формата : Big
Идентификатор кодека : A_DTS
Продолжительность : 2 ч. 0 м.
Вид битрейта : Постоянный
Битрейт : 1509 Кбит/сек
Каналы : 6 каналов
Расположение каналов : Front: L C R, Side: L R, LFE
Частота : 48,0 КГц
Битовая глубина : 16 бит
Метод сжатия : С потерями
Размер потока : 1,27 Гбайт (18%)
Язык : Russian
Default : Да
Forced : Нет

Аудио #2
Идентификатор : 3
Формат : AC-3
Формат/Информация : Audio Coding 3
Расширение режима : CM (complete main)
Параметр Endianness формата : Big
Идентификатор кодека : A_AC3
Продолжительность : 2 ч. 0 м.
Вид битрейта : Постоянный
Битрейт : 448 Кбит/сек
Каналы : 6 каналов
Расположение каналов : Front: L C R, Side: L R, LFE
Частота : 48,0 КГц
Битовая глубина : 16 бит
Метод сжатия : С потерями
Размер потока : 387 Мбайт (5%)
Язык : Russian
Default : Нет
Forced : Нет

Аудио #3
Идентификатор : 4
Формат : DTS
Формат/Информация : Digital Theater Systems
Режим : 16
Параметр Endianness формата : Big
Идентификатор кодека : A_DTS
Продолжительность : 2 ч. 0 м.
Вид битрейта : Постоянный
Битрейт : 1509 Кбит/сек
Каналы : 6 каналов
Расположение каналов : Front: L C R, Side: L R, LFE
Частота : 48,0 КГц
Битовая глубина : 24 бит
Метод сжатия : С потерями
Размер потока : 1,27 Гбайт (18%)
Язык : English
Default : Нет
Forced : Нет

Текст
Идентификатор : 5
Формат : UTF-8
Идентификатор кодека : S_TEXT/UTF8
Идентификатор кодека/Информация : UTF-8 Plain Text
Язык : English
Default : Нет
Forced : Нет

Меню
00:00:00.000 : en:00:00:00.000
00:07:14.833 : en:00:07:14.833
00:13:55.583 : en:00:13:55.583
00:25:15.833 : en:00:25:15.833
00:33:02.167 : en:00:33:02.167
00:40:18.167 : en:00:40:18.167
00:47:25.250 : en:00:47:25.250
00:58:19.417 : en:00:58:19.417
01:08:45.625 : en:01:08:45.625
01:18:35.833 : en:01:18:35.833
01:29:46.125 : en:01:29:46.125
01:38:34.542 : en:01:38:34.542
01:44:39.458 : en:01:44:39.458
01:49:44.667 : en:01:49:44.667
01:55:27.833 : en:01:55:27.833
Свернуть

"Скриншоты"
Изображение
Изображение
Изображение
Изображение
Изображение
Изображение
Изображение
Изображение
Изображение
Изображение
Свернуть
Не в сети
Профиль  
 Добавлено: 2014-03-15 18:12 (спустя 11 дней)
Аватара пользователя
Стаж: 9 лет 1 месяц
Сообщений: 29
Кто смотрел-как фильм ??
Не в сети
Профиль  
Начать новую темуОтветить на тему  [ Сообщений: 2 ] 
Вы не можете начинать темы
Вы не можете отвечать на сообщения
Вы не можете редактировать свои сообщения
Вы не можете удалять свои сообщения