Правила форума

  • В этом разделе создание новых тем Запрещено.
  • Для создания новых тем пользуйтесь Корневым разделом DVD и HD фильмы.
Начать новую темуОтветить на тему  [ 1 сообщение ] 
Торрент файл
Размер: 9.8 GB • Зарегистрирован: 2 года 7 месяцев • Статус: Проверено
Скачан: 22 раза • Желающих скачать: 0 • Поблагодарили: 7 раз
 Раздают: 0  |  0 KB/s  ]   Качают: 0  |  0 KB/s  ] 
 Полного источника не было 10 месяцев 
Сообщения
 Добавлено: 2014-04-06 08:17
Руководитель релиз-группы
Аватара пользователя
Стаж: 7 лет 4 месяца
Возраст: 31
Сообщений: 3407
Спасибок: 46729
Лайков: 5
Изображение

Август
August: Osage County


Год выпуска: 2013
Страна: США
Слоган: «Misery loves family»
Жанр: драма
Продолжительность: 02:00:49
Перевод: Профессиональный (полное дублирование) [лицензия]
Режиссер: Джон Уэллс
Сценарий: Трэйси Леттс
Продюсер: Стив Трэкслер, Джордж Клуни, Джин Думаньян, Грант Хеслов, Рон Бёркл
Оператор: Адриано Голдман
Композитор: Густаво Сантаолалья
В ролях: Мэрил Стрип, Джулия Робертс, Юэн МакГрегор, Эбигейл Бреслин, Крис Купер, Марго Мартиндейл, Джулианна Николсон, Бенедикт Камбербэтч, Дермот Малруни, Джульетт Льюис, Мисти Апхэм, Сэм Шепард
Бюджет: $25 000 000
Сборы в США: $37 687 332
Сборы в России: $1 163 702
Сборы в мире: $71 489 398
Описание: В городе Талса, штат Оклахома, в отчий дом съезжаются члены большой семьи Уэстонов. Случилось несчастье и три дочери Барбара, Карен, Иви, их мать Виолетта, тетя Метти Фей, а также их мужья, дети и ухажеры собираются под одной крышей, пьют виски и выясняют отношения, обвиняя друг друга в предательствах, подавленных чувствах и изломанных судьбах. У каждого есть свой скелет в шкафу и все тайное, что обычно скрывается за фасадом благополучного дома, становится явным.
Изображение
MPAA: R
Мировая премьера: 9 сентября 2013
Релиз на DVD: 6 марта 2014, «CP Дистрибуция»
Релиз на Blu-ray: 6 марта 2014, «CP Дистрибуция»
Раздача группы: Изображение
Качество: BDRip, 1080p
Формат: MKV
Видео: AVC; 1920x804 (2.35:1); 10101 Kbps; 24 fps; 0,273 bit/pixel
Аудио №1: AC3; 640 Kbps; CBR; 6 ch Russian
Аудио №2: AC3; 640 Kbps; CBR; 6 ch English
Субтитры: русские, английские
mediainfo
Format : Matroska
Format version : Version 2
File size : 9.80 GiB
Duration : 2h 0mn
Overall bit rate : 11.6 Mbps
Movie name : August.(2013).BDRip.1080p.[denis100]
Encoded date : UTC 2014-03-05 07:55:06
Writing application : mkvmerge v5.8.0 ('No Sleep / Pillow') built on Sep 2 2012 15:37:04
Writing library : libebml v1.2.3 + libmatroska v1.3.0

Video
ID : 1
Format : AVC
Format/Info : Advanced Video Codec
Format profile : High@L4.1
Format settings, CABAC : Yes
Format settings, ReFrames : 5 frames
Codec ID : V_MPEG4/ISO/AVC
Duration : 2h 0mn
Bit rate : 10.3 Mbps
Width : 1 920 pixels
Height : 804 pixels
Display aspect ratio : 2.40:1
Frame rate mode : Constant
Frame rate : 24.000 fps
Color space : YUV
Chroma subsampling : 4:2:0
Bit depth : 8 bits
Scan type : Progressive
Bits/(Pixel*Frame) : 0.279
Stream size : 8.52 GiB (87%)
Title : August.(2013).BDRip.1080p.[denis100].CHD
Writing library : x264 core 138 r2356 a1d3d17
Encoding settings : cabac=1 / ref=5 / deblock=1:-3:-3 / analyse=0x3:0x113 / me=umh / subme=10 / psy=1 / psy_rd=1.00:0.05 / mixed_ref=1 / me_range=32 / chroma_me=1 / trellis=2 / 8x8dct=1 / cqm=0 / deadzone=21,11 / fast_pskip=0 / chroma_qp_offset=-2 / threads=18 / lookahead_threads=1 / sliced_threads=0 / nr=0 / decimate=1 / interlaced=0 / bluray_compat=0 / constrained_intra=0 / bframes=6 / b_pyramid=2 / b_adapt=2 / b_bias=0 / direct=3 / weightb=1 / open_gop=0 / weightp=2 / keyint=250 / keyint_min=24 / scenecut=40 / intra_refresh=0 / rc=2pass / mbtree=0 / bitrate=10337 / ratetol=1.0 / qcomp=0.70 / qpmin=0 / qpmax=69 / qpstep=4 / cplxblur=20.0 / qblur=0.5 / ip_ratio=1.40 / pb_ratio=1.30 / aq=2:0.90
Language : English
Default : Yes
Forced : No

Audio #1
ID : 2
Format : AC-3
Format/Info : Audio Coding 3
Mode extension : CM (complete main)
Format settings, Endianness : Big
Codec ID : A_AC3
Duration : 2h 0mn
Bit rate mode : Constant
Bit rate : 640 Kbps
Channel(s) : 6 channels
Channel positions : Front: L C R, Side: L R, LFE
Sampling rate : 48.0 KHz
Bit depth : 16 bits
Compression mode : Lossy
Stream size : 553 MiB (6%)
Title : Дублированный
Language : Russian
Default : No
Forced : No

Audio #2
ID : 3
Format : AC-3
Format/Info : Audio Coding 3
Mode extension : CM (complete main)
Format settings, Endianness : Big
Codec ID : A_AC3
Duration : 2h 0mn
Bit rate mode : Constant
Bit rate : 640 Kbps
Channel(s) : 6 channels
Channel positions : Front: L C R, Side: L R, LFE
Sampling rate : 48.0 KHz
Bit depth : 16 bits
Compression mode : Lossy
Stream size : 553 MiB (6%)
Title : English
Language : English
Default : No
Forced : No

Text #1
ID : 4
Format : UTF-8
Codec ID : S_TEXT/UTF8
Codec ID/Info : UTF-8 Plain Text
Title : Russian
Language : Russian
Default : No
Forced : No

Text #2
ID : 5
Format : UTF-8
Codec ID : S_TEXT/UTF8
Codec ID/Info : UTF-8 Plain Text
Title : English
Language : English
Default : No
Forced : No

Menu
00:00:00.000 : en:Chapter 01
00:07:14.833 : en:Chapter 02
00:13:55.583 : en:Chapter 03
00:25:15.833 : en:Chapter 04
00:33:02.167 : en:Chapter 05
00:40:18.167 : en:Chapter 06
00:47:25.250 : en:Chapter 07
00:58:19.417 : en:Chapter 08
01:08:45.625 : en:Chapter 09
01:18:35.833 : en:Chapter 10
01:29:46.125 : en:Chapter 11
01:38:34.542 : en:Chapter 12
01:44:39.458 : en:Chapter 13
01:49:44.667 : en:Chapter 14
01:55:27.833 : en:Chapter 15
Свернуть
"Знаете ли Вы, что..."
  • Фильм снят по мотивам пьесы Трэйси Леттса Август: Графство Осейдж (August: Osage County, 2007).
  • Трэйси Леттс возражал против решения Харви Вайнштейна проводить для фильма кастинг британских актеров (Юэн МакГрегор, Бенедикт Камбербэтч, Андреа Райзборо, которая почти получила роль Карен, и т. д.), но безуспешно. Леттс был против, потому что по сценарию все персонажи были американцами. Однако он признал, что его точка зрения изменилась после просмотра фильма.
  • Хлоя Грейс Морец прослушивалась на роль Джин Фордэм, но уступила Эбигейл Бреслин.
  • Премьера спектакля Август: Графство Осейдж состоялась в Чикаго в 2007 году. Позже его также ставили в Нью-Йорке на Бродвее. В 2008 году Леттс удостоился Пулитцеровской премии за эту пьесу.
  • Рене Зеллвегер и Андреа Райзборо рассматривались на роль в фильме. Райзборо была выбрана, но позже выбыла из проекта из-за несогласованности во времени съемок. Джульетт Льюис заменила ее.
  • Во время промотура фильма Белоснежка: Месть гномов (2012) Джулия Робертс расплакалась прямо во время интервью, когда она поделилась с репортером новостью о том, что в следующем фильме ей предстоит сыграть с Мэрил Стрип, которую она назвала своей любимой актрисой.
  • Джим Керри рассматривался на роль в фильме.
  • У Эбигейл Бреслин был сильный жар во время прослушивания.
  • Трэйси Леттс хотел, чтобы в фильме сыграли те же актеры, которые участвовали в сценической постановке. В конечном итоге ни один из них не появился в фильме.
Свернуть
Скриншоты

Изображение

Изображение

Изображение

Изображение
Свернуть
Не в сети
Профиль  
Начать новую темуОтветить на тему  [ 1 сообщение ] 
Вы не можете начинать темы
Вы не можете отвечать на сообщения
Вы не можете редактировать свои сообщения
Вы не можете удалять свои сообщения