Правила форума

  • В этом разделе создание новых тем Запрещено.
  • Для создания новых тем пользуйтесь Корневым разделом DVD и HD фильмы.
Начать новую темуОтветить на тему  [ Сообщений: 4 ] 
Торрент файл
Размер: 7.76 GB • Зарегистрирован: 3 года 11 месяцев • Статус: Проверено
Скачан: 88 раз • Желающих скачать: 0 • Поблагодарили: 30 раз
 Раздают: 1  |  8 KB/s  ]   Качают: 0  |  0 KB/s  ] 
Сообщения
 Добавлено: 2012-12-21 22:04
Модератор
Аватара пользователя
Стаж: 6 лет 10 месяцев
Возраст: 33
Сообщений: 5908
Спасибок: 61265
Лайков: 3540
Изображение

Авиатор
The Aviator


Год выпуска: 2004
Страна: США, Германия
Слоган: «Leonardo DiCaprio as Howard Hughes the man who became a legend.»
Жанр: драма, биография
Продолжительность: 02:50:09
Перевод: Профессиональный (полное дублирование)
Режиссер: Мартин Скорсезе
Сценарий: Джон Логан
Продюсер: Сэнди Климэн, Чарльз Эванс мл., Грэм Кинг, Майкл Манн, Крис Бригэм
Оператор: Роберт Ричардсон
Композитор: Говард Шор
В ролях: Леонардо ДиКаприо, Сергей Бурунов, Кейт Бланшетт, Ольга Зубкова, Мэтт Росс, Василий Дахненко, Джон Си Райли, Борис Быстров, Алан Алда, Никита Прозоровский, Кейт Бекинсейл, Марианна Шульц
Бюджет: $110 000 000
Сборы в США: $102 610 330
Сборы в России: $2 025 478
Сборы в мире: $213 741 459
Мировая премьера: 14 декабря 2004
Релиз на DVD: 9 сентября 2008, «Парадиз Медиа»
Релиз на Blu-ray: 11 июня 2009, «Парадиз Медиа»
Описание: Получив от отца небольшую фабрику, Говард Хьюз превратил ее в гигантское, фантастически прибыльное предприятие. Став владельцем огромной кинокомпании, он снял самый дорогой для своего времени фильм и покорил сердца прелестнейших голливудских актрис.
Ему принадлежали самые престижные казино Лас-Вегаса и он установил рекорд скоростных полетов, приобрел вторую по величине коммерческую авиакомпанию…
Деньги жгут сердце Хьюза, они не дают ему покоя, а душа его рвется ввысь. Только там, на высоте нескольких тысяч метров он счастлив по-настоящему. Только там, где все решает лишь мастерство пилота и Бог, ничто не ценится так дорого, как верность и честь.


Изображение User Rating: 7.630 (32 933)
Изображение User Rating: 7.50 (150 961)
MPAA: PG-13 - Детям до 13 лет просмотр не желателен
Раздача группы: Изображение
Качество: BDRip, 1080p
Формат: Matroska
Видео: AVC; 1920x1080 (16:9); 10541 Kbps; 23,976 fps; 0,212 bit/pixel
Аудио №1: Russian; AC-3, 6 ch, 448 kbps (Rus)
Аудио №2: AC-3, 6 ch, 448 kbps (Eng)

Субтитры №1: Russian
Субтитры №2: Russian
Субтитры №3: Russian
Субтитры №4: Russian
Субтитры №5:

mediainfo
Общее
Уникальный идентификатор : 178229531942341111729746301015581849331 (0x8615C25E7B812216917961CEE968F6F3)
Полное имя : Авиатор.2004.BDRip.1080p.Rus.Eng.mkv
Формат : Matroska
Версия формата : Version 2
Размер файла : 7,76 Гбайт
Продолжительность : 2 ч. 50 м.
Общий поток : 6531 Кбит/сек
Название фильма : Авиатор.2004
Дата кодирования : UTC 2012-12-21 16:36:38
Программа кодирования : mkvmerge v5.8.0 ('No Sleep / Pillow') built on Sep 2 2012 15:37:04
Библиотека кодирования : libebml v1.2.3 + libmatroska v1.3.0

Видео
Идентификатор : 1
Формат : AVC
Формат/Информация : Advanced Video Codec
Профиль формата : High@L4.1
Параметр CABAC формата : Да
Параметр ReFrames формата : 5 кадров
Идентификатор кодека : V_MPEG4/ISO/AVC
Продолжительность : 2 ч. 50 м.
Битрейт : 5634 Кбит/сек
Ширина : 1920 пикселей
Высота : 816 пикселей
Соотношение сторон : 2,35:1
Режим частоты кадров : Постоянный
Частота кадров : 23,976 кадра/сек
Цветовое пространство : YUV
Субдискретизация насыщенности : 4:2:0
Битовая глубина : 8 бит
Тип развёртки : Прогрессивная
Бит/(Пиксели*Кадры) : 0.150
Размер потока : 6,54 Гбайт (84%)
Заголовок : Rip by Boriy
Библиотека кодирования : x264 core 129 r2230 1cffe9f
Настройки программы : cabac=1 / ref=5 / deblock=1:0:0 / analyse=0x3:0x113 / me=umh / subme=10 / psy=1 / psy_rd=1.00:0.10 / mixed_ref=1 / me_range=32 / chroma_me=1 / trellis=2 / 8x8dct=1 / cqm=0 / deadzone=21,11 / fast_pskip=0 / chroma_qp_offset=-2 / threads=12 / lookahead_threads=2 / sliced_threads=0 / nr=0 / decimate=0 / interlaced=0 / bluray_compat=0 / constrained_intra=0 / bframes=5 / b_pyramid=2 / b_adapt=2 / b_bias=0 / direct=3 / weightb=1 / open_gop=0 / weightp=2 / keyint=240 / keyint_min=23 / scenecut=40 / intra_refresh=0 / rc=2pass / mbtree=0 / bitrate=5634 / ratetol=1.0 / qcomp=0.60 / qpmin=0 / qpmax=69 / qpstep=4 / cplxblur=20.0 / qblur=0.5 / ip_ratio=1.40 / pb_ratio=1.30 / aq=1:0.80
Язык : English
Default : Да
Forced : Нет

Аудио #1
Идентификатор : 2
Формат : AC-3
Формат/Информация : Audio Coding 3
Расширение режима : CM (complete main)
Параметр Endianness формата : Big
Идентификатор кодека : A_AC3
Продолжительность : 2 ч. 50 м.
Вид битрейта : Постоянный
Битрейт : 448 Кбит/сек
Каналы : 6 каналов
Расположение каналов : Front: L C R, Side: L R, LFE
Частота : 48,0 КГц
Битовая глубина : 16 бит
Метод сжатия : С потерями
Размер потока : 545 Мбайт (7%)
Заголовок : Дубляж
Язык : Russian
Default : Да
Forced : Нет

Аудио #2
Идентификатор : 3
Формат : AC-3
Формат/Информация : Audio Coding 3
Расширение режима : CM (complete main)
Параметр Endianness формата : Big
Идентификатор кодека : A_AC3
Продолжительность : 2 ч. 50 м.
Вид битрейта : Постоянный
Битрейт : 448 Кбит/сек
Каналы : 6 каналов
Расположение каналов : Front: L C R, Side: L R, LFE
Частота : 48,0 КГц
Битовая глубина : 16 бит
Метод сжатия : С потерями
Размер потока : 545 Мбайт (7%)
Заголовок : Оригинал
Язык : English
Default : Нет
Forced : Нет

Текст #1
Идентификатор : 4
Формат : UTF-8
Идентификатор кодека : S_TEXT/UTF8
Идентификатор кодека/Информация : UTF-8 Plain Text
Язык : Russian
Default : Нет
Forced : Нет

Текст #2
Идентификатор : 5
Формат : UTF-8
Идентификатор кодека : S_TEXT/UTF8
Идентификатор кодека/Информация : UTF-8 Plain Text
Язык : English
Default : Нет
Forced : Нет

Меню
00:00:00.000 : :Young Howard
00:14:01.048 : :"Welcome to Hollywood," Hell's Angels Year One
00:27:57.425 : :Hell's Angels Year Two
00:40:35.015 : :Hell's Angels Year Three
00:58:01.019 : :"Howear Hughes; $4 Million Epic"
01:12:41.565 : :"Follow-Through Is Everyting in Golf, Just Like Life"
01:23:04.938 : :Twa... "Tiger By the Tail"
01:41:20.365 : :"I'm Sure You Know Errol"
01:52:15.395 : :Teaching Kate to Fly
02:09:11.827 : :H-1 Racer, Breaking the World Speed Record
02:22:02.430 : :Letting Kate In
02:29:59.240 : :Around the World in Four Days
02:49:40.086 : :"Don't Worry About It Howard, She's Just Working the Room"
Свернуть
"Знаете ли Вы, что..."
  • На роль Ховарда Хьюза в свое время претендовал Джим Керри. По началу данный проект должен был возглавить Майкл Манн, однако, учитывая тот факт, что за его плечами были два последовательных фильма-биографии «Свой человек» (1999) и «Али» (2001), режиссер решил остаться одним из продюсеров и предложил режиссерское место авторитетному Мартину Скорсезе.
Свернуть
Скриншоты

Изображение
Изображение
Изображение
Изображение
Изображение
Свернуть
_________________
ИзображениеИзображение Изображение
Изображение


Последний раз редактировалось rotametr 2012-12-22 10:56, всего редактировалось 1 раз.
 negritos, tany1984 и di-ys1 нравится это.
Не в сети
Профиль  
 Добавлено: 2012-12-21 22:48 (спустя 44 минуты)
Software R.G.
Аватара пользователя
Стаж: 8 лет 6 месяцев
Возраст: 32
Сообщений: 523
Спасибок: 2480
Лайков: 3
клевый фильм
 rotametr нравится это.
Не в сети
Профиль  
 Добавлено: 2012-12-21 23:38 (спустя 49 минут)
Модератор
Аватара пользователя
Стаж: 6 лет 10 месяцев
Возраст: 33
Сообщений: 5908
Спасибок: 61265
Лайков: 3540

avdey01:

клевый фильм
Согласен.
_________________
ИзображениеИзображение Изображение
Изображение
Не в сети
Профиль  
 Добавлено: 2013-01-17 22:46 (спустя 26 дней)
Software R.G.
Аватара пользователя
Стаж: 8 лет 6 месяцев
Возраст: 32
Сообщений: 523
Спасибок: 2480
Лайков: 3
надо поглядеть
 rotametr нравится это.
Не в сети
Профиль  
Начать новую темуОтветить на тему  [ Сообщений: 4 ] 
Вы не можете начинать темы
Вы не можете отвечать на сообщения
Вы не можете редактировать свои сообщения
Вы не можете удалять свои сообщения