Правила форума

  • В этом разделе создание новых тем Запрещено.
  • Для создания новых тем пользуйтесь Корневым разделом DVD и HD фильмы.
Начать новую темуОтветить на тему  [ Сообщений: 2 ] 
Торрент файл
Размер: 17.07 GB • Зарегистрирован: 3 года 6 месяцев • Статус: Проверено
Скачан: 24 раза • Желающих скачать: 0 • Поблагодарили: 9 раз
 Раздают: 0  |  0 KB/s  ]   Качают: 0  |  0 KB/s  ] 
 Полного источника не было 2 года 10 месяцев 
Сообщения
 Добавлено: 2013-05-29 22:08
Руководитель релиз-группы
Аватара пользователя
Стаж: 9 лет 1 месяц
Возраст: 28
Сообщений: 4244
Спасибок: 31991
Лайков: 32
Изображение
Австралия / Australia


«Их союз неподвластен правилам, их любовь неподвластна судьбе.»


Год выпуска | 2008
Страна | Австралия ∙ США ∙ Великобритания
Жанр | драма ∙ мелодрама ∙ приключения ∙ военный ∙ история
Продолжительность | 02:45:28
Перевод | Профессиональный (полное дублирование) /русский/ ∙ Профессиональный (полное дублирование) /украинский/ ∙ Оригинальный ∙ Субтитры (русские - полные и форсированные, украинские - полные и форсированные, английские - полные)
Режиссер | Баз Лурман
Сценарий | Баз Лурман ∙ Стюарт Битти ∙ Рональд Харвуд ∙ Ричард Флэнеган
Продюсер | Дж. Мак Браун ∙ Катрин Нэпман ∙ Баз Лурман ∙ Катрин Мартин ∙ Пол «Дабси» Уоттерс
Оператор | Мэнди Уокер
Композитор | Дэвид Хиршфелдер

В ролях | Хью Джекман (Drover) ∙ Николь Кидман (Lady Sarah Ashley) ∙ Брэндон Уолтерс (Nullah) ∙ Брайан Браун (King Carney) ∙ Дэвид Уэнэм (Neil Fletcher) ∙ Дэвид Галпилил (King George) ∙ Ши Адамс (Carney Boy #3) ∙ Эдди Бару (Bull) ∙ Рэй Баррет (Ramsden) ∙ Тони Бэрри (Sergeant Callahan) ∙ Джамал Беднарз-Металла (Mission Boy) ∙ Дэмиэн Брэдфорд (Constable #1) и др.
Дублёры | Станислав Концевич (Drover) ∙ Светлана Кузнецова (Lady Sarah Ashley) ∙ Ксения Синявская (Nullah) ∙ Валерий Кухарешин (King Carney) ∙ Олег Алмазов (Neil Fletcher) ∙ Максим Сергеев (Bull) ∙ Борис Улитин (Ramsden; Sergeant Callahan) ∙ Виктор Костецкий (Dr. Barker) ∙ Вадим Яковлев (Kipling Flynn) и др.
Описание | В основе сюжета положена история английской аристократки, получающей в наследство огромное ранчо на севере австралийского материка. Перед началом Второй мировой войны она приезжает в имение для того, чтобы оберечь его от попыток английских скотоводов заполучить ранчо под названием «Faraway Downs» в свою собственность, и сталкивается с необходимостью при помощи Дровера перегнать 1500 голов скота через тысячи миль в город Дарвин. Там двое попадают под массированные бомбардировки со стороны японского Императорского флота.
Релиз | ИзображениеРаздача | Изображение

kinopoisk.ru | 7.342 (23 892)
Бюджет | $130 000 000
Сборы в США | $49 554 002
Сборы в России | $3 149 324
Сборы в мире | $211 342 221
Мировая премьера | 18 ноября 2008
Релиз на DVD | 5 марта 2009 ∙ «Двадцатый Век Фокс СНГ»
Релиз на Blu-Ray | 21 мая 2009 ∙ «Двадцатый Век Фокс СНГ»
Знаете ли Вы, что...
  • Первоначально на главную мужскую роль планировался Рассел Кроу, однако летом 2006 года актёр сделал заявление, что «не собирается заниматься благотворительностью и сниматься за маленькие деньги для большой студии» и выбыл из проекта. Роль затем была предложена Хиту Леджеру, однако тот был вынужден отказаться из-за участия в сиквеле «Бэтмена» («Тёмный рыцарь»).
  • Фильм долго оставался без названия, пока 23 ноября 2006 года режиссёр Бэз Лурманн не объявил в эфире одного из австралийских радиошоу название «Австралия». Другими наиболее вероятными названиями были, по его словам, «Great Southern Land» и «Faraway Downs».
  • Два жарких месяца фильм снимали в маленьком городке Кунунурра в северной оконечности Западной Австралии, в местности известной как Кимберли (где есть только три города с населением свыше 2000 человек).
  • Фильм можно назвать многострадальным, ввиду списка трудностей, пережитых съемочной группой. После 50 лет засухи на выжженные пустоши внезапно обрушились дожди, смыв только что достроенные декорации и задержав начало съемочного процесса. Национальная эпидемия вируса Хендра испортила сезон скачек и привела к введению запретов на перевозку лошадей - та еще беда, если главные герои фильма почти все экранное время проводят в седле. Потом была невероятная жара, когда температура зашкаливала за 48 градусов по Цельсию: медсестры не успевали оказывать помощь участникам съемочной группы, обгоревшим и получившим тепловые удары на солнце, съемки приходилось постоянно прерывать, чтобы занятые в фильме люди и животные могли отдохнуть в тени.
  • По окончанию съемок Лурман шутил: «С коровами работать трудно, они мне столько кадров испортили, решив вдруг заняться сексом!»
  • В последний момент режиссер картины Баз Лурман изменил финал картины. В одном из них персонаж Хью Джекмана - Дровер должен был погибнуть.
  • В сценах с японским авианалетом использовался отснятый материал со съемок «Тора! Тора! Тора!» (1970).
  • «Австралия» стала уже вторым проектом, в котором Кидман и Кроу не получилось поработать вместе. Актёры являются давними друзьями, и в 2005 году уже начинали съёмки в романтической драме «Эвкалипт», которая была остановлена по требованию Кроу из-за недостатков сценария.
  • 25 января 2007 года было заявлено, что популярный австралийский актёр Дэвид Венхэм (исполнитель роли Фарамира в экранизации «Властелина Колец») сыграет в фильме антагониста, замышляющего отобрать у героини Кидман её ранчо.
  • В съемках участвовало более 1500 диких лошадей.
Свернуть

Качество | BDRip 1080p
Контейнер | Matroska
Видео | AVC ∙ 1920x816 (2.35:1) ∙ 12115 kbps ∙ 23.976 fps ∙ 0.323 bit/pixel
Аудио #1 | DTS ∙ 755 kbps ∙ CBR ∙ 6 channels ∙ 24 bit /DUB - RUS/
Аудио #2 | AC3 ∙ 384 kbps ∙ CBR ∙ 6 channels ∙ 16 bit /DUB - UKR/
Аудио #3 | DTS ∙ 1510 kbps ∙ CBR ∙ 6 channels ∙ 24 bit /ENG/

MediaInfo
General
Unique ID : 195947365513599282054832445284779899325 (0x936A170227DB107C856506ABE09939BD)
Complete name : I:\films\Australia.2008.BDRip.1080p.mkv
Format : Matroska
File size : 17.1 GiB
Duration : 2h 45mn
Overall bit rate : 14.8 Mbps
Movie name : Australia (2008) - Release for HDCLUB
Encoded date : UTC 2009-03-23 17:44:37
Writing application : mkvmerge v2.1.0 ('Another Place To Fall') built on Aug 19 2007 13:40:07
Writing library : libebml v0.7.7 + libmatroska v0.8.1

Video
ID : 1
Format : AVC
Format/Info : Advanced Video Codec
Format profile : High@L4.1
Format settings, CABAC : Yes
Format settings, ReFrames : 5 frames
Codec ID : V_MPEG4/ISO/AVC
Duration : 2h 45mn
Bit rate : 12.1 Mbps
Width : 1 920 pixels
Height : 816 pixels
Display aspect ratio : 2.35:1
Frame rate : 23.976 fps
Color space : YUV
Chroma subsampling : 4:2:0
Bit depth : 8 bits
Scan type : Progressive
Bits/(Pixel*Frame) : 0.323
Stream size : 13.7 GiB (80%)
Title : Release for HDCLUB
Writing library : x264 core 67 r1128M 682b54d
Encoding settings : cabac=1 / ref=5 / deblock=1:-3:-3 / analyse=0x3:0x133 / me=tesa / subme=9 / psy_rd=1.2:0.0 / mixed_ref=1 / me_range=32 / chroma_me=1 / trellis=2 / 8x8dct=1 / cqm=0 / deadzone=21,11 / chroma_qp_offset=-2 / threads=12 / nr=0 / decimate=1 / mbaff=0 / bframes=10 / b_pyramid=1 / b_adapt=2 / b_bias=0 / direct=3 / wpredb=1 / keyint=250 / keyint_min=25 / scenecut=40 / rc=2pass / bitrate=12115 / ratetol=1.0 / qcomp=0.60 / qpmin=10 / qpmax=51 / qpstep=4 / cplxblur=20.0 / qblur=0.5 / ip_ratio=1.40 / pb_ratio=1.30 / aq=1:1.00
Language : English

Audio #1
ID : 2
Format : DTS
Format/Info : Digital Theater Systems
Codec ID : A_DTS
Duration : 2h 45mn
Bit rate mode : Constant
Bit rate : 755 Kbps
Channel(s) : 6 channels
Channel positions : Front: L C R, Side: L R, LFE
Sampling rate : 48.0 KHz
Bit depth : 24 bits
Compression mode : Lossy
Stream size : 893 MiB (5%)
Title : DTS 5.1 @ 768 kbps - Дубляж
Language : Russian

Audio #2
ID : 3
Format : AC-3
Format/Info : Audio Coding 3
Mode extension : CM (complete main)
Codec ID : A_AC3
Duration : 2h 45mn
Bit rate mode : Constant
Bit rate : 384 Kbps
Channel(s) : 6 channels
Channel positions : Front: L C R, Side: L R, LFE
Sampling rate : 48.0 KHz
Bit depth : 16 bits
Compression mode : Lossy
Stream size : 455 MiB (3%)
Title : AC3 5.1 @ 384 kbps - Дубляж
Language : Ukrainian

Audio #3
ID : 4
Format : DTS
Format/Info : Digital Theater Systems
Codec ID : A_DTS
Duration : 2h 45mn
Bit rate mode : Constant
Bit rate : 1 510 Kbps
Channel(s) : 6 channels
Channel positions : Front: L C R, Side: L R, LFE
Sampling rate : 48.0 KHz
Bit depth : 24 bits
Compression mode : Lossy
Stream size : 1.75 GiB (10%)
Title : DTS 5.1 @ 1536 kbps
Language : English

Text #1
ID : 5
Format : UTF-8
Codec ID : S_TEXT/UTF8
Codec ID/Info : UTF-8 Plain Text
Language : Russian

Text #2
ID : 6
Format : UTF-8
Codec ID : S_TEXT/UTF8
Codec ID/Info : UTF-8 Plain Text
Title : Надписи и прочее
Language : Russian

Text #3
ID : 7
Format : UTF-8
Codec ID : S_TEXT/UTF8
Codec ID/Info : UTF-8 Plain Text
Language : Ukrainian

Text #4
ID : 8
Format : UTF-8
Codec ID : S_TEXT/UTF8
Codec ID/Info : UTF-8 Plain Text
Title : Надписи и прочее
Language : Ukrainian

Text #5
ID : 9
Format : ASS
Codec ID : S_TEXT/ASS
Codec ID/Info : Advanced Sub Station Alpha
Compression mode : Lossless
Language : English
Свернуть

Скриншоты

Изображение

Изображение

Изображение
Свернуть
_________________
«you failed because you had the wrong dream...»
Не в сети
Профиль  
 Добавлено: 2015-12-23 00:59 (спустя 2 года 6 месяцев)
Стаж: 8 лет 1 месяц
Сообщений: 2
Встаньте кто-нибудь на раздачу, пожалуйста.
Не в сети
Профиль  
Начать новую темуОтветить на тему  [ Сообщений: 2 ] 
Вы не можете начинать темы
Вы не можете отвечать на сообщения
Вы не можете редактировать свои сообщения
Вы не можете удалять свои сообщения