Правила форума

  • В этом разделе создание новых тем Запрещено.
  • Для создания новых тем пользуйтесь Корневым разделом DVD и HD фильмы.
Начать новую темуОтветить на тему  [ Сообщений: 2 ] 
Торрент файл
Размер: 17.17 GB • Зарегистрирован: 4 года 11 месяцев • Статус: Проверено
Скачан: 49 раз • Желающих скачать: 0 • Поблагодарили: 28 раз
 Раздают: 0  |  0 KB/s  ]   Качают: 0  |  0 KB/s  ] 
 Полного источника не было 1 месяц 25 дней 
Сообщения
 Добавлено: 2011-12-28 15:41
Модератор релиз-группы
Аватара пользователя
Стаж: 9 лет 1 месяц
Возраст: 97
Сообщений: 11659
Спасибок: 6532
Лайков: 269
Багровые реки: Дилогия / Les Rivières pourpres: Dilogy

Изображение

Багровые реки / Les Rivières pourpres
Багровые реки / Les Rivières pourpres

Изображение

Год выпуска: 2000
Страна: Франция
Жанр: триллер, криминал, детектив
Продолжительность: 1:45:47
Перевод: Профессиональный (многоголосый, закадровый)
Двухголосый
Дубляж
Cубтитры: Русские

Режиссер: Матье Кассовиц

В ролях: Жан Рено, Доминик Санда, Надя Фарес, Венсан Кассель, Жан-Пьер Кассель

Описание: В престижном колледже в Альпах совершено зверское убийство, которое расследует опытный комиссар полиции Пьер Ньеманс. Тем временем в другом местечке происходит еще одно, весьма странное преступление - кто-то раскапывает и оскверняет могилу 10-летней девочки.
Это дело ведет молодой детектив Макс Керкерьян. Кажется, между данными событиями нет связи. Но она существует! И когда оба полицейских обнаруживают ее, доселе виденные ими заурядные злодеяния постепенно меркнут по сравнению с тем сердцем тьмы, куда приведут их поиски правды. Смертельно опасной правды...
Качество: BDRip
Формат: MKV
Видео: MPEG4 Video (H264) 1920x816 24.00fps ~ 8689kbps
Аудио#1: Russian Dolby AC3 48000Hz 6ch 448 Kbps (Многоголосый)
Аудио#2: Russian Dolby AC3 48000Hz 6ch 448 Kbps (Двухголосый)
Аудио#3: Russian MP3 48000Hz 2ch 192 Kbps (Дубляж)
Аудио#4: Francais DTS 5.1, 1536 kbps (Оригинал)
скриншоты
Изображение

Изображение

Изображение
Свернуть
Mi
Format : Matroska
Format version : Version 1
File size : 8.72 GiB
Duration : 1h 45mn
Overall bit rate : 11.8 Mbps
Encoded date : UTC 2008-11-12 05:05:11
Writing application : mkvmerge v2.1.0 ('Another Place To Fall') built on Aug 19 2007 13:40:07
Writing library : libebml v0.7.7 + libmatroska v0.8.1

Video
ID : 1
Format : AVC
Format/Info : Advanced Video Codec
Format profile : High@L4.1
Format settings, CABAC : Yes
Format settings, ReFrames : 4 frames
Format settings, GOP : N=1
Codec ID : V_MPEG4/ISO/AVC
Duration : 1h 45mn
Bit rate : 9 241 Kbps
Width : 1 920 pixels
Height : 816 pixels
Display aspect ratio : 2.35:1
Frame rate : 24.000 fps
Color space : YUV
Chroma subsampling : 4:2:0
Bit depth : 8 bits
Scan type : Progressive
Bits/(Pixel*Frame) : 0.246
Stream size : 6.62 GiB (76%)
Writing library : x264 core 65 r1016M dbc5ef0
Encoding settings : cabac=1 / ref=4 / deblock=1:-2:-2 / analyse=0x3:0x113 / me=umh / subme=7 / psy_rd=1.0:0.0 / mixed_ref=1 / me_range=16 / chroma_me=1 / trellis=2 / 8x8dct=1 / cqm=0 / deadzone=21,11 / chroma_qp_offset=-2 / threads=3 / nr=0 / decimate=0 / mbaff=0 / bframes=3 / b_pyramid=1 / b_adapt=1 / b_bias=0 / direct=3 / wpredb=1 / keyint=250 / keyint_min=25 / scenecut=40(pre) / rc=2pass / bitrate=9241 / ratetol=2.0 / qcomp=0.60 / qpmin=10 / qpmax=51 / qpstep=4 / cplxblur=20.0 / qblur=0.5 / vbv_maxrate=38000 / vbv_bufsize=30000 / ip_ratio=1.40 / pb_ratio=1.30 / aq=1:1.00
Language : English

Audio #1
ID : 2
Format : AC-3
Format/Info : Audio Coding 3
Mode extension : CM (complete main)
Codec ID : A_AC3
Duration : 1h 45mn
Bit rate mode : Constant
Bit rate : 448 Kbps
Channel(s) : 6 channels
Channel positions : Front: L C R, Side: L R, LFE
Sampling rate : 48.0 KHz
Bit depth : 16 bits
Compression mode : Lossy
Stream size : 339 MiB (4%)
Title : Многоголосый
Language : Russian

Audio #2
ID : 3
Format : AC-3
Format/Info : Audio Coding 3
Mode extension : CM (complete main)
Codec ID : A_AC3
Duration : 1h 45mn
Bit rate mode : Constant
Bit rate : 448 Kbps
Channel(s) : 6 channels
Channel positions : Front: L C R, Side: L R, LFE
Sampling rate : 48.0 KHz
Bit depth : 16 bits
Compression mode : Lossy
Stream size : 339 MiB (4%)
Title : Двухголосый
Language : Russian

Audio #3
ID : 4
Format : MPEG Audio
Format version : Version 1
Format profile : Layer 2
Codec ID : A_MPEG/L2
Codec ID/Hint : MP2
Duration : 1h 45mn
Bit rate mode : Constant
Bit rate : 192 Kbps
Channel(s) : 2 channels
Sampling rate : 48.0 KHz
Compression mode : Lossy
Stream size : 145 MiB (2%)
Title : Дубляж
Language : Russian

Audio #4
ID : 5
Format : DTS
Format/Info : Digital Theater Systems
Format profile : ES
Codec ID : A_DTS
Duration : 1h 45mn
Bit rate mode : Constant
Bit rate : 1 510 Kbps
Channel(s) : 7 channels / 6 channels
Channel positions : Front: L C R, Side: L R, Back: C, LFE / Front: L C R, Side: L R, LFE
Sampling rate : 48.0 KHz
Bit depth : 16 bits
Compression mode : Lossy
Stream size : 1.12 GiB (13%)
Language : French

Text
ID : 6
Format : UTF-8
Codec ID : S_TEXT/UTF8
Codec ID/Info : UTF-8 Plain Text
Language : Russian

Свернуть
Свернуть

Багровые реки 2: Ангелы апокалипсиса / Les rivieres pourpres II - Les anges de l'apocalypse
Багровые реки 2: Ангелы апокалипсиса / Les rivieres pourpres II - Les anges de l'apocalypse

Изображение

Страна: Франция, Италия, Великобритания
Жанр: триллер, боевик, криминальный детектив
Год выпуска: 2004
Продолжительность: 01:39:12
Перевод: Профессиональный (дублированный)
Субтитры: Русскиe

Режиссер: Оливье Даан / Olivier Dahan

В ролях: Жан Рено, Бенуа Мажимель, Кристофер Ли, Камилль Натта, Джонни Халлидей, Габриель Лазюр, Огустен Легран, Серж Рябукин, Андре Пенверн, Франсис Рено

Описание: Капитан Пьер Ниман — полицейский. Чертовски хороший полицейский. Один из лучших. Его работа требуется в особенных случаях. Он умный и храбрый, за словом в карман не полезет. Он любит работать один, но зачастую ему требуется напарник, а то и два. Он ненавидит собак, но имеет свою собственную — йоркширский терьер.
Ему доставляет радость воздать по заслугам бандитам и убийцам, тем более, что они верят в свою безнаказанность, пока не перейдут дорогу Пьеру Ниману. Ниман расследует дело о человеке, замурованном в стену с загадочными знаками. В это время Реда, молодой капитан полиции, находит у дверей церкви полумёртвого двойника Иисуса Христа. Реда полагает, что эта история как-то связана с расследованием Нимана, учеником которого он был в полицейской школе.
В округе продолжаются убийства: таинственные монахи, обладающие сверхестественной силой, убивают случайных встречных и исчезают бесследно. При помощи Мари, специалистки по истории религий, Ниман и Реда пытаются найти ответы на все вопросы…

Качество: BDRip
Формат: MKV
Видео: AVC, 1920х812, 24.000 fps, ~9933 kbps
Аудио №1: Русский DTS, 5.1, 48 kHz, ~756 kbps
Аудио №2: Французский DTS-ES, 6.1, 48 kHz, ~1510 Kbps
Субтитры: Русскиe
скриншоты
Изображение

Изображение

Изображение
Свернуть
Mi
Format : Matroska
Format version : Version 2
File size : 8.45 GiB
Duration : 1h 39mn
Overall bit rate : 12.2 Mbps
Encoded date : UTC 2010-10-27 13:48:29
Writing application : mkvmerge v4.1.0 ('Boiling Point') built on Jul 1 2010 14:37:28
Writing library : libebml v1.0.0 + libmatroska v1.0.0

Video
ID : 1
Format : AVC
Format/Info : Advanced Video Codec
Format profile : High@L4.1
Format settings, CABAC : Yes
Format settings, ReFrames : 5 frames
Codec ID : V_MPEG4/ISO/AVC
Duration : 1h 39mn
Bit rate : 9 933 Kbps
Width : 1 920 pixels
Height : 812 pixels
Display aspect ratio : 2.35:1
Frame rate : 24.000 fps
Color space : YUV
Chroma subsampling : 4:2:0
Bit depth : 8 bits
Scan type : Progressive
Bits/(Pixel*Frame) : 0.265
Stream size : 6.71 GiB (79%)
Writing library : x264 core 104 r1703 cd21d05
Encoding settings : cabac=1 / ref=5 / deblock=1:-3:-3 / analyse=0x3:0x113 / me=umh / subme=9 / psy=1 / psy_rd=1.05:0.10 / mixed_ref=1 / me_range=32 / chroma_me=1 / trellis=2 / 8x8dct=1 / cqm=0 / deadzone=21,11 / fast_pskip=0 / chroma_qp_offset=-2 / threads=12 / sliced_threads=0 / nr=0 / decimate=1 / interlaced=0 / constrained_intra=0 / bframes=5 / b_pyramid=2 / b_adapt=2 / b_bias=0 / direct=3 / weightb=1 / open_gop=0 / weightp=2 / keyint=250 / keyint_min=24 / scenecut=40 / intra_refresh=0 / rc_lookahead=60 / rc=2pass / mbtree=1 / bitrate=9933 / ratetol=2.0 / qcomp=0.70 / qpmin=10 / qpmax=51 / qpstep=4 / cplxblur=20.0 / qblur=0.5 / vbv_maxrate=50000 / vbv_bufsize=50000 / ip_ratio=1.40 / aq=1:1.00 / nal_hrd=none
Language : French

Audio #1
ID : 2
Format : DTS
Format/Info : Digital Theater Systems
Muxing mode : Header stripping
Codec ID : A_DTS
Duration : 1h 39mn
Bit rate mode : Constant
Bit rate : 755 Kbps
Channel(s) : 6 channels
Channel positions : Front: L C R, Side: L R, LFE
Sampling rate : 48.0 KHz
Bit depth : 24 bits
Compression mode : Lossy
Stream size : 535 MiB (6%)
Title : RUS
Language : Russian

Audio #2
ID : 3
Format : DTS
Format/Info : Digital Theater Systems
Format profile : ES
Muxing mode : Header stripping
Codec ID : A_DTS
Duration : 1h 39mn
Bit rate mode : Constant
Bit rate : 1 510 Kbps
Channel(s) : 7 channels / 6 channels
Channel positions : Front: L C R, Side: L R, Back: C, LFE / Front: L C R, Side: L R, LFE
Sampling rate : 48.0 KHz
Bit depth : 24 bits
Compression mode : Lossy
Stream size : 1.05 GiB (12%)
Title : FRE
Language : French

Text
ID : 4
Format : UTF-8
Codec ID : S_TEXT/UTF8
Codec ID/Info : UTF-8 Plain Text
Title : RUS
Language : Russian

Свернуть
Свернуть

Изображение
_________________
Изображение
Не в сети
Профиль  
 Добавлено: 2013-10-07 16:05 (спустя 1 год 9 месяцев)
Аватара пользователя
Стаж: 5 лет 7 месяцев
Возраст: 26
Сообщений: 224
Спасибок: 6
Позже))
Фильм, атас! Пересмотреть хочу
_________________
Изображение


Тема поднималась пользователем Артурыч 2013-10-07 16:05.
Не в сети
Профиль  
Начать новую темуОтветить на тему  [ Сообщений: 2 ] 
Вы не можете начинать темы
Вы не можете отвечать на сообщения
Вы не можете редактировать свои сообщения
Вы не можете удалять свои сообщения