Правила форума

  • В этом разделе создание новых тем Запрещено.
  • Для создания новых тем пользуйтесь Корневым разделом DVD и HD фильмы.
Начать новую темуОтветить на тему  [ 1 сообщение ] 
Торрент файл
Размер: 4.55 GB • Зарегистрирован: 4 года 4 месяца • Статус: Проверено
Скачан: 7 раз • Желающих скачать: 0 • Поблагодарили: 1 раз
 Раздают: 0  |  0 KB/s  ]   Качают: 0  |  0 KB/s  ] 
 Полного источника не было 3 года 2 месяца 
Сообщения
 Добавлено: 2012-07-09 11:54
Top-releaser
Аватара пользователя
Стаж: 6 лет 7 месяцев
Сообщений: 2078
Спасибок: 3229
Лайков: 9
Бандитки / Bandidas
«Definitely wanted»

Изображение


Год выпуска: 2006
Страна: США, Франция, Мексика
Жанр: боевик, комедия, вестерн, криминал
Продолжительность: 01:32:46
Перевод: Профессиональный (дублированный)

Режиссёр: Хоаким Роннинг, Эспен Сандберг
В ролях: Пенелопа Крус, Сальма Хайек, Стив Зан, Дуайт Йоакам, Денис Арндт, Одра Блейзер, Сэм Шепард, Исмаэль «Ист» Карло, Гэри Сервантес, Хосе Мария Негри
Описание: Мексика, 1888 год. Две очаровательные налетчицы - образованная европейка и грубоватая мексиканка - наводят ужас на банки Дикого Запада. Никто не может противостоять их изобретательности и неустрашимости. И, тем более, никто не может устоять перед их красотой.

Раздача группы: Изображение

Качество: BDRip, 720p
Формат: MKV
Видео кодек: H.264
Аудио кодек: AC3, DTS
Видео: 1280x544 [2.35 : 1] at 23.976 fps, x264@L4.1, 2pass, ~4892 kbps
Аудио #1: Русский: 48 kHz, AC3, 5.1, ~448kbps [Дубляж, R5]
Аудио #2: Украинский: 48 kHz, AC3, 2,0, ~192kbps [Многоголосый закадровый, «Новый Канал»]
Аудио #3: Английский: 48 kHz, DTS, 5.1, ~1536kbps [Оригинал]
Субтитры: Русские, Английские

MediaInfo
Общее
Уникальный идентификатор : 254247176627874881370994098898301077275 (0xBF46399E790B5D95AB4EC74F4DFFC71B)
Полное имя : Z:\WWW\TR-Downloads\Bandidas.720p[R.G.Daredevil].mkv
Формат : Matroska
Версия формата : Version 2
Размер файла : 4,55 Гбайт
Продолжительность : 1 ч. 32 м.
Общий поток : 7024 Кбит/сек
Название фильма : Bandidas (2006) - Release for HDCLUB
Дата кодирования : UTC 2010-09-17 09:29:12
Программа кодирования : mkvmerge v3.3.0 ('Language') built on Mar 24 2010 14:59:24
Библиотека кодирования : libebml v0.8.0 + libmatroska v0.9.0

Видео
Идентификатор : 1
Формат : AVC
Формат/Информация : Advanced Video Codec
Профиль формата : High@L4.1
Параметр CABAC формата : Да
Параметр ReFrames формата : 12 кадров
Идентификатор кодека : V_MPEG4/ISO/AVC
Продолжительность : 1 ч. 32 м.
Битрейт : 4734 Кбит/сек
Ширина : 1280 пикселей
Высота : 544 пикселя
Соотношение сторон : 2,35:1
Частота кадров : 23,976 кадра/сек
Цветовое пространство : YUV
Субдискретизация насыщенности : 4:2:0
Битовая глубина : 8 бит
Тип развёртки : Прогрессивная
Бит/(Пиксели*Кадры) : 0.284
Размер потока : 3,07 Гбайт (67%)
Заголовок : Release for HDCLUB
Библиотека кодирования : x264 core 104 r1698 c41b8f0
Настройки программы : cabac=1 / ref=12 / deblock=1:-3:-3 / analyse=0x3:0x133 / me=tesa / subme=10 / psy=1 / psy_rd=1.00:0.00 / mixed_ref=1 / me_range=32 / chroma_me=1 / trellis=2 / 8x8dct=1 / cqm=0 / deadzone=21,11 / fast_pskip=0 / chroma_qp_offset=-2 / threads=6 / sliced_threads=0 / nr=0 / decimate=0 / interlaced=0 / constrained_intra=0 / bframes=7 / b_pyramid=2 / b_adapt=2 / b_bias=0 / direct=1 / weightb=1 / open_gop=0 / weightp=2 / keyint=250 / keyint_min=23 / scenecut=40 / intra_refresh=0 / rc_lookahead=40 / rc=crf / mbtree=0 / crf=16.5 / qcomp=0.60 / qpmin=10 / qpmax=51 / qpstep=4 / vbv_maxrate=50000 / vbv_bufsize=62500 / crf_max=0.0 / ip_ratio=1.40 / pb_ratio=1.30 / aq=1:0.80 / nal_hrd=none
Язык : English
Default : Да
Forced : Нет

Аудио #1
Идентификатор : 2
Формат : AC-3
Формат/Информация : Audio Coding 3
Расширение режима : CM (complete main)
Параметр Endianness формата : Big
Идентификатор кодека : A_AC3
Продолжительность : 1 ч. 32 м.
Вид битрейта : Постоянный
Битрейт : 448 Кбит/сек
Каналы : 6 каналов
Расположение каналов : Front: L C R, Side: L R, LFE
Частота : 48,0 КГц
Битовая глубина : 16 бит
Метод сжатия : С потерями
Размер потока : 297 Мбайт (6%)
Заголовок : AC3 5.1 448 Kbps [Дубляж, R5]
Язык : Russian
Default : Да
Forced : Нет

Аудио #2
Идентификатор : 3
Формат : AC-3
Формат/Информация : Audio Coding 3
Расширение режима : CM (complete main)
Параметр Endianness формата : Big
Идентификатор кодека : A_AC3
Продолжительность : 1 ч. 32 м.
Вид битрейта : Постоянный
Битрейт : 192 Кбит/сек
Каналы : 2 канала
Расположение каналов : Front: L R
Частота : 48,0 КГц
Битовая глубина : 16 бит
Метод сжатия : С потерями
Размер потока : 127 Мбайт (3%)
Заголовок : AC3 2.0 192 Kbps [Многоголосый, «Новый Канал»]
Язык : Ukrainian
Default : Нет
Forced : Нет

Аудио #3
Идентификатор : 4
Формат : DTS
Формат/Информация : Digital Theater Systems
Идентификатор кодека : A_DTS
Продолжительность : 1 ч. 32 м.
Вид битрейта : Постоянный
Битрейт : 1510 Кбит/сек
Каналы : 6 каналов
Расположение каналов : Front: L C R, Side: L R, LFE
Частота : 48,0 КГц
Битовая глубина : 24 бит
Метод сжатия : С потерями
Размер потока : 1002 Мбайт (21%)
Заголовок : DTS 5.1 1536 Kbps [Оригинал]
Язык : English
Default : Нет
Forced : Нет

Текст #1
Идентификатор : 5
Формат : UTF-8
Идентификатор кодека : S_TEXT/UTF8
Идентификатор кодека/Информация : UTF-8 Plain Text
Язык : Russian
Default : Нет
Forced : Нет

Текст #2
Идентификатор : 6
Формат : UTF-8
Идентификатор кодека : S_TEXT/UTF8
Идентификатор кодека/Информация : UTF-8 Plain Text
Язык : English
Default : Нет
Forced : Нет

Меню
00:00:00.000 : en:00:00:00.000
00:07:31.910 : en:00:07:31.910
00:14:30.286 : en:00:14:30.286
00:22:04.073 : en:00:22:04.073
00:30:46.261 : en:00:30:46.261
00:38:52.872 : en:00:38:52.872
00:48:41.836 : en:00:48:41.836
00:57:18.393 : en:00:57:18.393
01:06:11.092 : en:01:06:11.092
01:23:12.070 : en:01:23:12.070
Свернуть
Скриншоты
Изображение

Изображение

Изображение

Изображение
Свернуть
Не в сети
Профиль  
Начать новую темуОтветить на тему  [ 1 сообщение ] 
Вы не можете начинать темы
Вы не можете отвечать на сообщения
Вы не можете редактировать свои сообщения
Вы не можете удалять свои сообщения