Правила форума

  • В этом разделе создание новых тем Запрещено.
  • Для создания новых тем пользуйтесь Корневым разделом DVD и HD фильмы.
Начать новую темуОтветить на тему  [ 1 сообщение ] 
Торрент файл
Размер: 12.17 GB • Зарегистрирован: 3 года 10 месяцев • Статус: Проверено
Скачан: 17 раз • Желающих скачать: 0 • Поблагодарили: 8 раз
 Раздают: 0  |  0 KB/s  ]   Качают: 0  |  0 KB/s  ] 
 Полного источника не было 2 года 11 месяцев 
Сообщения
 Добавлено: 2013-10-21 14:02
Модератор релиз-группы
Аватара пользователя
Стаж: 7 лет 8 месяцев
Возраст: 29
Сообщений: 9789
Спасибок: 23730
Лайков: 103
Изображение

Бар «Гадкий койот»
Coyote Ugly


Год выпуска: 2000
Страна: США
Слоган: «This party never ends.»
Жанр: драма, мелодрама, комедия, музыка
Продолжительность: 01:47:30
Перевод: Профессиональный (полное дублирование)
Авторский (Живов Юрий)

Режиссер: Дэвид МакНэлли
Сценарий: Джина Вендкос
Продюсер: Джерри Брукхаймер, Чад Оман, Джефф Эмер, Скотт Гарденауа, Дженнифер Круг-Вортингтон
Оператор: Амир М. Мокри
Композитор: Тревор Хорн
В ролях: Пайпер Перабо, Адам Гарсия, Джон Гудмен, Мария Белло, Изабелла Мико, Тайра Бэнкс, Бриджет Мойнэхэн, Мелани Лински, Дель Пентекост, Майкл Уэстон, ЛиЭнн Раймс, Джереми Роули
Бюджет: $80 000 000
Сборы в США: $60 786 269
Сборы в мире: $113 916 474
Мировая премьера: 31 июля 2000
Релиз на DVD: 27 июля 2010, «Уолт Дисней Компани СНГ»
Описание: Вайолет всю жизнь прожила на окраине и мечтала стать певицей. Но ее никогда не покидал страх перед освещенной сценой и шумной толпой. Наконец, мечта привела ее в Нью-Йорк, где Вайолет устроилась на работу официанткой в знаменитый бар «Гадкий Койот», где правят бал только красивые и решительные.
В обществе неотразимых красавиц, чьи манеры пугают ханжей и привлекают мужчин, Вайолет должна преодолеть природную застенчивость и услышать собственный голос.


Изображение User Rating: 7.157 (16 207)
Изображение User Rating: 5.40 (58 429)
MPAA: PG-13 - Детям до 13 лет просмотр не желателен
Раздача группы: Изображение
Изображение
Качество: BDRip, 1080p
Формат: MKV
Видео: AVC; 1920x800 (2.40:1); 23,976 fps
Аудио №1: русский; AC3; 192 Kbps; CBR; 2 ch - Дублированный (R5)
Аудио №2: русский; DTS; 1510 Kbps; CBR; 6 ch; 16 bit - Авторский одноголосый (Живов)
Аудио №3: DTS; 1510 Kbps; CBR; 6 ch; 24 bit - Оригинал
Аудио №4: AAC LC; 2 ch
- комментарии режиссера Дэвида МакНэлли и др.
Субтитры №1: русские
Субтитры №2: английские

mediainfo
Общее
Уникальный идентификатор : 203618804418234507077583294592276223249 (0x992F8E25F9665B848F8B326D95FBD511)
Полное имя : D:\TORRENT\Coyote.Ugly.2000.1080p.BluRay.2xRus.Eng.HDCLUB-Skazhutin.mkv
Формат : Matroska
Размер файла : 12,2 Гбайт
Продолжительность : 1 ч. 47 м.
Общий поток : 16,2 Мбит/сек
Название фильма : Coyote Ugly (2000) - Release for HDCLUB by Skazhutin
Дата кодирования : UTC 2010-02-22 21:41:31
Программа кодирования : mkvmerge v5.9.0 ('On The Loose') built on Dec 9 2012 15:37:01
Библиотека кодирования : libebml v1.3.0 + libmatroska v1.4.0
Обложка : Yes / Yes

Видео
Идентификатор : 1
Формат : AVC
Формат/Информация : Advanced Video Codec
Профиль формата : High@L4.1
Параметр CABAC формата : Да
Параметр ReFrames формата : 5 кадров
Идентификатор кодека : V_MPEG4/ISO/AVC
Продолжительность : 1 ч. 47 м.
Ширина : 1920 пикс.
Высота : 800 пикс.
Соотношение сторон : 2,40:1
Частота кадров : 23,976 кадр/сек
Цветовое пространство : YUV
Подвыборка цветности : 4:2:0
Битовая глубина : 8 бит
Тип развёртки : Прогрессивная
Библиотека кодирования : x264 core 129 r2230kMod 1cffe9f
Настройки программы : cabac=1 / ref=5 / deblock=1:-3:-3 / analyse=0x3:0x113 / me=umh / subme=11 / psy=1 / fade_compensate=0.00 / psy_rd=1.00:0.00 / mixed_ref=1 / me_range=48 / chroma_me=1 / trellis=2 / 8x8dct=1 / cqm=0 / deadzone=21,11 / fast_pskip=1 / chroma_qp_offset=-2 / threads=12 / lookahead_threads=2 / sliced_threads=0 / nr=0 / decimate=1 / interlaced=0 / bluray_compat=0 / constrained_intra=0 / bframes=9 / b_pyramid=2 / b_adapt=2 / b_bias=0 / direct=3 / weightb=1 / open_gop=0 / weightp=2 / keyint=250 / keyint_min=23 / scenecut=40 / intra_refresh=0 / rc_lookahead=40 / rc=crf / mbtree=0 / crf=18.0000 / qcomp=0.75 / qpmin=0 / qpmax=69 / qpstep=4 / vbv_maxrate=50000 / vbv_bufsize=62500 / crf_max=0.0 / nal_hrd=none / ip_ratio=1.10 / pb_ratio=1.10 / aq=1:0.70
Язык : English
Коэффициенты матрицы : BT.709-5, BT.1361, IEC 61966-2-4 709, SMPTE RP177

Аудио #1
Идентификатор : 2
Формат : AC-3
Формат/Информация : Audio Coding 3
Расширение режима : CM (complete main)
Идентификатор кодека : A_AC3
Продолжительность : 1 ч. 47 м.
Вид битрейта : Постоянный
Битрейт : 192 Кбит/сек
Каналы : 2 канала
Расположение каналов : Front: L R
Частота : 48,0 КГц
Битовая глубина : 16 бит
Метод сжатия : С потерями
Размер потока : 148 Мбайт (1%)
Заголовок : AC3 2.0 @ 192 kbps - Dub
Язык : Russian

Аудио #2
Идентификатор : 3
Формат : DTS
Формат/Информация : Digital Theater Systems
Идентификатор кодека : A_DTS
Продолжительность : 1 ч. 47 м.
Вид битрейта : Постоянный
Битрейт : 1510 Кбит/сек
Каналы : 6 каналов
Расположение каналов : Front: L C R, Side: L R, LFE
Частота : 48,0 КГц
Битовая глубина : 16 бит
Метод сжатия : С потерями
Размер потока : 1,13 Гбайт (9%)
Заголовок : DTS 5.1 @ 1536 kbps - VO, Jivov
Язык : Russian

Аудио #3
Идентификатор : 4
Формат : DTS
Формат/Информация : Digital Theater Systems
Идентификатор кодека : A_DTS
Продолжительность : 1 ч. 47 м.
Вид битрейта : Постоянный
Битрейт : 1510 Кбит/сек
Каналы : 6 каналов
Расположение каналов : Front: L C R, Side: L R, LFE
Частота : 48,0 КГц
Битовая глубина : 24 бит
Метод сжатия : С потерями
Размер потока : 1,13 Гбайт (9%)
Заголовок : DTS 5.1 @ 1536 kbps
Язык : English

Аудио #4
Идентификатор : 5
Формат : AAC
Формат/Информация : Advanced Audio Codec
Профиль формата : LC
Идентификатор кодека : A_AAC
Продолжительность : 1 ч. 47 м.
Каналы : 2 канала
Расположение каналов : Front: L R
Частота : 48,0 КГц
Метод сжатия : С потерями
Задержка видео : 9 мс.
Заголовок : AAC 2.0 @ 88 kbps - Commentary by Director David McNally, Producer Jerry Bruckheimer and The Coyotes: Tyra Banks, Tyra Banks, Izabella Miko, Bridget Moynahan and Piper Perabo
Язык : English

Текст #1
Идентификатор : 6
Формат : UTF-8
Идентификатор кодека : S_TEXT/UTF8
Идентификатор кодека/Информация : UTF-8 Plain Text
Язык : Russian

Текст #2
Идентификатор : 7
Формат : UTF-8
Идентификатор кодека : S_TEXT/UTF8
Идентификатор кодека/Информация : UTF-8 Plain Text
Язык : English

Меню
00:00:00.000 : en:1. Opening Titles/Leaving Town
00:09:18.849 : en:2. Welcome To The Music Business
00:18:09.922 : en:3. Coyotes
00:23:01.296 : en:4. Violet's Audition
00:33:24.919 : en:5. Shopping
00:37:08.184 : en:6. Do We Serve Water in Our Bar?
00:38:54.415 : en:7. Live Auction
00:42:53.487 : en:8. Four Dates
00:50:03.583 : en:9. The Singing Coyote From Jersey
00:56:15.830 : en:10. Private Serenade
01:03:57.792 : en:11. Coyote Softball
01:07:06.981 : en:12. Dad's Approval
01:18:42.217 : en:13. No Show
01:20:50.887 : en:14. Broken Rules
01:21:05.360 : en:15. Gloria's Wedding
01:23:14.698 : en:16. The Accident
01:29:54.972 : en:17. I'm Doing Fine
01:35:01.362 : en:18. Songwriters Showcase
01:38:27.693 : en:19. Dreams Come True
01:42:03.534 : en:20. End Credits
Свернуть
"Знаете ли Вы, что..."
  • Из фильма вырезали полную секс-сцену Пайпер Перабо и Адама Гарсия.
  • Популярность фильма породила идею открыть реальный бар «Гадкий койот». Интерьер, музыка, дресс-код и поведение барменов в котором соответствовали бы стилю фильма. Сейчас бары «Гадкий койот» есть в США, Германии и России.
  • Основой для фильма послужила автобиографическая статья Элизабет Гилберт «Муза салона Гадкий койот» («The Muse of the Coyote Ugly Saloon») для журнала GQ, опубликованная в 1997 году и повествующая о временах, когда она работала в первом танцевальном баре «Гадкий койот» в Ист-Виллидж.
Свернуть
Скриншоты

Изображение
Изображение
Изображение
Изображение
Изображение
Изображение
Изображение
Изображение
Свернуть


Тема поднималась пользователем volkov2009 2013-10-21 14:02.
Не в сети
Профиль  
Начать новую темуОтветить на тему  [ 1 сообщение ] 
Вы не можете начинать темы
Вы не можете отвечать на сообщения
Вы не можете редактировать свои сообщения
Вы не можете удалять свои сообщения