Правила форума

  • В этом разделе создание новых тем Запрещено.
  • Для создания новых тем пользуйтесь Корневым разделом DVD и HD фильмы.
Начать новую темуОтветить на тему  [ 1 сообщение ] 
Торрент файл
Размер: 4.48 GB • Зарегистрирован: 3 года 11 месяцев • Статус: Проверено
Скачан: 9 раз • Желающих скачать: 0 • Поблагодарили: 2 раза
 Раздают: 0  |  0 KB/s  ]   Качают: 0  |  0 KB/s  ] 
 Полного источника не было 2 года 9 месяцев 
Сообщения
 Добавлено: 2012-12-27 10:19
Модератор
Аватара пользователя
Стаж: 6 лет 10 месяцев
Возраст: 33
Сообщений: 5908
Спасибок: 61261
Лайков: 3540
Изображение

Барбара
Barbara


Год выпуска: 2012
Страна: Германия
Жанр: драма
Продолжительность: 01:45:07
Перевод: Профессиональный (многоголосый, закадровый)
Режиссер: Кристиан Петцольд
Сценарий: Кристиан Петцольд, Харун Фароки
Продюсер: Флориан Корнер фон Густорф, Андреас Шрейтмюллер, Кэролайн фон Сенден, Майкл Вебер
Оператор: Ганс Фромм
Композитор: Стефан Уилл
В ролях: Нина Хосс, Рональд Церфельд, Райнер Бок, Кристина Хеке, Клаудия Гейслер, Питер Уайсс, Каролин Хаупт, Дениз Петцольд, Роза Энскат, Ясна Фритци Бауэр, Пир-Уве Теска, Элизабет Леманн
Сборы в России: $11 418
Мировая премьера: 11 февраля 2012
Описание: Красивая девушка из ГДР подала заявление на выезд из страны и за это сослана в провинцию. В свободном мире ее ждет возлюбленный, который уже разработал для нее план побега на лодке через Балтийское море. А пока Барбара живет под надзором спецслужб и работает в больнице в отделе педиатрической хирургии, где вместе со своим коллегой Андре пытается помочь юной беженке из трудовой колонии - ярой противнице режима.

Изображение User Rating: 6.877 (198)
Изображение User Rating: 7.20 (1 623)
MPAA: PG-13 - Детям до 13 лет просмотр не желателен
Раздача группы: Изображение
Изображение
Качество: BDRip, 720p
Формат: Matroska
Видео: AVC; 4438 kb/s, 1280x720
Аудио: Russian: AC3, 192 kb/s (6 ch) / French: DTS, 1510 kb/s (6 ch)
Субтитры: English, French
mediainfo
General
Unique ID : 226868187968920792254153837949122814729 (0xAAAD3942083F530C9A63ADA222A8A309)
Complete name : Barbara.2012.P.BDRip.720p.mkv
Format : Matroska
Format version : Version 2
File size : 4.48 GiB
Duration : 1h 45mn
Overall bit rate : 6 106 Kbps
Encoded date : UTC 2012-12-22 12:56:52
Writing application : mkvmerge v5.4.0 ('Piper') built on Mar 10 2012 13:34:39
Writing library : libebml v1.2.3 + libmatroska v1.3.0

Video
ID : 1
Format : AVC
Format/Info : Advanced Video Codec
Format profile : High@L4.1
Format settings, CABAC : Yes
Format settings, ReFrames : 5 frames
Muxing mode : Header stripping
Codec ID : V_MPEG4/ISO/AVC
Duration : 1h 45mn
Bit rate : 4 438 Kbps
Width : 1 280 pixels
Height : 720 pixels
Display aspect ratio : 16:9
Frame rate : 24.000 fps
Color space : YUV
Chroma subsampling : 4:2:0
Bit depth : 8 bits
Scan type : Progressive
Bits/(Pixel*Frame) : 0.201
Stream size : 3.14 GiB (70%)
Writing library : x264 core 128 r2216 198a7ea
Encoding settings : cabac=1 / ref=5 / deblock=1:0:0 / analyse=0x3:0x113 / me=umh / subme=7 / psy=1 / psy_rd=1.00:0.00 / mixed_ref=1 / me_range=16 / chroma_me=1 / trellis=1 / 8x8dct=1 / cqm=0 / deadzone=21,11 / fast_pskip=0 / chroma_qp_offset=-2 / threads=12 / lookahead_threads=2 / sliced_threads=0 / nr=0 / decimate=1 / interlaced=0 / bluray_compat=0 / constrained_intra=0 / bframes=3 / b_pyramid=2 / b_adapt=1 / b_bias=0 / direct=1 / weightb=1 / open_gop=0 / weightp=2 / keyint=250 / keyint_min=24 / scenecut=40 / intra_refresh=0 / rc_lookahead=40 / rc=2pass / mbtree=1 / bitrate=4438 / ratetol=1.0 / qcomp=0.60 / qpmin=0 / qpmax=69 / qpstep=4 / cplxblur=20.0 / qblur=0.5 / ip_ratio=1.40 / aq=1:1.00
Language : English
Default : Yes
Forced : No

Audio #1
ID : 2
Format : AC-3
Format/Info : Audio Coding 3
Mode extension : CM (complete main)
Format settings, Endianness : Big
Muxing mode : Header stripping
Codec ID : A_AC3
Duration : 1h 45mn
Bit rate mode : Constant
Bit rate : 192 Kbps
Channel(s) : 2 channels
Channel positions : Front: L R
Sampling rate : 48.0 KHz
Bit depth : 16 bits
Compression mode : Lossy
Stream size : 144 MiB (3%)
Language : Russian
Default : Yes
Forced : Yes

Audio #2
ID : 3
Format : DTS
Format/Info : Digital Theater Systems
Muxing mode : Header stripping
Codec ID : A_DTS
Duration : 1h 45mn
Bit rate mode : Constant
Bit rate : 1 510 Kbps
Channel(s) : 6 channels
Channel positions : Front: L C R, Side: L R, LFE
Sampling rate : 48.0 KHz
Bit depth : 24 bits
Compression mode : Lossy
Stream size : 1.11 GiB (25%)
Title : DTS 5.1
Language : French
Default : No
Forced : No

Text #1
ID : 4
Format : UTF-8
Codec ID : S_TEXT/UTF8
Codec ID/Info : UTF-8 Plain Text
Language : English
Default : No
Forced : No

Text #2
ID : 5
Format : UTF-8
Codec ID : S_TEXT/UTF8
Codec ID/Info : UTF-8 Plain Text
Title : Forced
Language : French
Default : No
Forced : No

Menu
00:00:00.000 : en:00:00:00.000
00:10:25.833 : en:00:10:25.833
00:21:07.250 : en:00:21:07.250
00:28:59.625 : en:00:28:59.625
00:40:22.708 : en:00:40:22.708
00:48:38.500 : en:00:48:38.500
00:57:03.625 : en:00:57:03.625
01:06:38.750 : en:01:06:38.750
01:20:00.708 : en:01:20:00.708
01:31:25.208 : en:01:31:25.208
01:41:09.792 : en:01:41:09.792
Свернуть
Скриншоты

Изображение
Изображение
Изображение
Изображение
Свернуть
_________________
ИзображениеИзображение Изображение
Изображение
 tany1984 и di-ys1 нравится это.
Не в сети
Профиль  
Начать новую темуОтветить на тему  [ 1 сообщение ] 
Вы не можете начинать темы
Вы не можете отвечать на сообщения
Вы не можете редактировать свои сообщения
Вы не можете удалять свои сообщения