Правила форума

  • В этом разделе создание новых тем Запрещено.
  • Для создания новых тем пользуйтесь Корневым разделом DVD и HD фильмы.
Начать новую темуОтветить на тему  [ Сообщений: 2 ] 
Торрент файл
Размер: 7.75 GB • Зарегистрирован: 1 год 6 месяцев • Статус: Проверено
Скачан: 13 раз • Желающих скачать: 0 • Поблагодарили: 3 раза
 Раздают: 0  |  0 KB/s  ]   Качают: 0  |  0 KB/s  ] 
 Полного источника не было 1 месяц 1 день 
Сообщения
 Добавлено: 2015-06-07 14:26
Аватара пользователя
Стаж: 3 года 4 месяца
Возраст: 31
Сообщений: 13
Спасибок: 84
Байки из склепа: Демон ночи / Tales from the Crypt: Demon Knight

Изображение


Год выпуска: 1995
Страна: США (Universal Pictures)
Слоган: «Ready for your deadtime story ?»
Жанр: ужасы, фэнтези, триллер, комедия
Продолжительность: 01:32:23
Перевод: Профессиональный (многоголосый закадровый) + Профессиональный (многоголосый закадровый) + Профессиональный (многоголосый закадровый) + Профессиональный (двухголосый закадровый) + Авторский одноголосый (Гаврилов) + Оригинальная звуковая дорожка
Субтитры: Русские

Режиссёр: Эрнест Р. Дикерсон
Сценарист: Этан Райфф, Сайрус Ворис, Марк Бишоп
Продюсер: Гилберт Адлер, Александр Б. Коллетт, Дэн Краччиоло
Оператор: Рик Бота
Композитор: Эд Ширмёр
В ролях: Джон Кассир , Билли Зейн, Уильям Сэдлер, Джада Пинкетт Смит, Бренда Бакки, Си Си Эйч Паундер, Дик Миллер, Томас Хейден Чёрч, Джон Шак, Гэри Фармер, Чарльз Флайшер, Тим Де Зарн, Шерри Роуз, Райан О`Донохью, Тони Салом, Кен Болдуин, Чейси Лэйн, Реда Биби, Трэйси Бингхэм
Описание: Два «человека», живущих уже не первую сотню лет, приезжают в маленький городок. Один из них, повелитель демонов, может понаделать их целую кучу из своей крови. А второй пытается его победить при помощи крови разбойника Варраввы, распятого рядом с Христом. Содержалась эта кровь в седьмом ключе, необходимом Нечистому для окончательного овладения миром. Участниками этой насыщенной кошмарами борьбы оказались несколько обычных граждан, о чем они вскоре очень пожалели…
Рейтинг MPAA: Рейтинг R (Подростки до 17 лет допускаются на фильм только в сопровождении одного из родителей)
Мировая премьера: 13 января 1995
Бюджет: $12 000 000
Изображение
Изображение

Качество: BDRip (1080p)
Формат: MKV
Видео кодек: AVC
Аудио кодек: AC3 (Dolby Digital)
Видео: 1080x1040, 10,4 Mbps, 23,976 fps, 0,217 Bits/(Pixel*Frame)
Аудио #1: AC3, 48 kHz, 6 ch, 448 kbps [Профессиональный (многоголосый закадровый) (R5)]
Аудио #2: AC3, 48 kHz, 2 ch, 192 kbps [Профессиональный (многоголосый закадровый) (СТС)]
Аудио #3: AC3, 48 kHz, 2 ch, 192 kbps [Профессиональный (многоголосый закадровый) (ТВ3)]
Аудио #4: AC3, 48 kHz, 2 ch, 224 kbps [Профессиональный (двухголосый закадровый) (Премьер Видео фильм)]
Аудио #5: AC3, 48 kHz, 2 ch, 192 kbps [Авторский одноголосый (Гаврилов)]
Аудио #6: AC3, 48 kHz, 6 ch, 384 kbps [Оригинальная звуковая дорожка]
Субтитры: Русские
Скриншоты
Изображение
Изображение
Изображение
Свернуть

MI
General
Unique ID : 195079466537414403246567545420038464855 (0x92C2F04900F84F8E963730694942E557)
Complete name : I:Demon.Knight.1995.Rus.Eng.BDRip.1080p_by_Bathory.mkv
Format : Matroska
Format version : Version 4 / Version 2
File size : 7.75 GiB
Duration : 1h 32mn
Overall bit rate : 12.0 Mbps
Encoded date : UTC 2015-05-04 08:36:55
Writing application : mkvmerge v7.7.0 ('Six Voices') 64bit built on Feb 28 2015 23:39:33
Writing library : libebml v1.3.1 + libmatroska v1.4.2
_STATISTICS_WRITING_APP : mkvmerge v7.7.0 ('Six Voices') 64bit built on Feb 28 2015 23:39:33
_STATISTICS_WRITING_DATE_UTC : 2015-05-04 08:36:55
_STATISTICS_TAGS : BPS DURATION NUMBER_OF_FRAMES NUMBER_OF_BYTES
DURATION : 01:24:36.535000000
NUMBER_OF_FRAMES : 1340
NUMBER_OF_BYTES : 3231973

Video
ID : 1
Format : AVC
Format/Info : Advanced Video Codec
Format profile : High@L4.1
Format settings, CABAC : Yes
Format settings, ReFrames : 4 frames
Codec ID : V_MPEG4/ISO/AVC
Duration : 1h 32mn
Bit rate : 10.4 Mbps
Width : 1 920 pixels
Height : 1 040 pixels
Display aspect ratio : 1.85:1
Frame rate mode : Constant
Frame rate : 23.976 fps
Color space : YUV
Chroma subsampling : 4:2:0
Bit depth : 8 bits
Scan type : Progressive
Bits/(Pixel*Frame) : 0.217
Stream size : 6.54 GiB (84%)
Writing library : x264 core 146 r2538 121396c
Encoding settings : cabac=1 / ref=4 / deblock=1:-3:-2 / analyse=0x3:0x133 / me=umh / subme=11 / psy=1 / psy_rd=1.15:0.15 / mixed_ref=1 / me_range=48 / chroma_me=1 / trellis=2 / 8x8dct=1 / cqm=0 / deadzone=21,11 / fast_pskip=0 / chroma_qp_offset=-3 / threads=12 / lookahead_threads=3 / sliced_threads=0 / nr=0 / decimate=1 / interlaced=0 / bluray_compat=0 / constrained_intra=0 / bframes=11 / b_pyramid=2 / b_adapt=2 / b_bias=0 / direct=3 / weightb=1 / open_gop=0 / weightp=2 / keyint=240 / keyint_min=23 / scenecut=40 / intra_refresh=0 / rc_lookahead=60 / rc=2pass / mbtree=1 / bitrate=10379 / ratetol=1.0 / qcomp=0.60 / qpmin=0 / qpmax=69 / qpstep=4 / cplxblur=20.0 / qblur=0.5 / vbv_maxrate=62500 / vbv_bufsize=78125 / nal_hrd=none / filler=0 / ip_ratio=1.40 / aq=1:1.00
Default : Yes
Forced : No

Audio #1
ID : 2
Format : AC-3
Format/Info : Audio Coding 3
Mode extension : CM (complete main)
Format settings, Endianness : Big
Codec ID : A_AC3
Duration : 1h 32mn
Bit rate mode : Constant
Bit rate : 448 Kbps
Channel(s) : 6 channels
Channel positions : Front: L C R, Side: L R, LFE
Sampling rate : 48.0 KHz
Bit depth : 16 bits
Compression mode : Lossy
Stream size : 296 MiB (4%)
Title : R5
Language : Russian
Default : Yes
Forced : No

Audio #2
ID : 3
Format : AC-3
Format/Info : Audio Coding 3
Mode extension : CM (complete main)
Format settings, Endianness : Big
Codec ID : A_AC3
Duration : 1h 32mn
Bit rate mode : Constant
Bit rate : 192 Kbps
Channel(s) : 2 channels
Channel positions : Front: L R
Sampling rate : 48.0 KHz
Bit depth : 16 bits
Compression mode : Lossy
Stream size : 127 MiB (2%)
Title : CTC
Language : Russian
Default : No
Forced : No

Audio #3
ID : 4
Format : AC-3
Format/Info : Audio Coding 3
Mode extension : CM (complete main)
Format settings, Endianness : Big
Codec ID : A_AC3
Duration : 1h 32mn
Bit rate mode : Constant
Bit rate : 192 Kbps
Channel(s) : 2 channels
Channel positions : Front: L R
Sampling rate : 48.0 KHz
Bit depth : 16 bits
Compression mode : Lossy
Stream size : 127 MiB (2%)
Title : TB3
Language : Russian
Default : No
Forced : No

Audio #4
ID : 5
Format : AC-3
Format/Info : Audio Coding 3
Mode extension : CM (complete main)
Format settings, Endianness : Big
Codec ID : A_AC3
Duration : 1h 32mn
Bit rate mode : Constant
Bit rate : 224 Kbps
Channel(s) : 2 channels
Channel positions : Front: L R
Sampling rate : 48.0 KHz
Bit depth : 16 bits
Compression mode : Lossy
Stream size : 148 MiB (2%)
Title : Premier Video
Language : Russian
Default : No
Forced : No

Audio #5
ID : 6
Format : AC-3
Format/Info : Audio Coding 3
Mode extension : CM (complete main)
Format settings, Endianness : Big
Codec ID : A_AC3
Duration : 1h 32mn
Bit rate mode : Constant
Bit rate : 192 Kbps
Channel(s) : 2 channels
Channel positions : Front: L R
Sampling rate : 48.0 KHz
Bit depth : 16 bits
Compression mode : Lossy
Stream size : 127 MiB (2%)
Title : Gavrilov
Language : Russian
Default : No
Forced : No

Audio #6
ID : 7
Format : AC-3
Format/Info : Audio Coding 3
Mode extension : CM (complete main)
Format settings, Endianness : Big
Codec ID : A_AC3
Duration : 1h 32mn
Bit rate mode : Constant
Bit rate : 384 Kbps
Channel(s) : 6 channels
Channel positions : Front: L C R, Side: L R, LFE
Sampling rate : 48.0 KHz
Bit depth : 16 bits
Compression mode : Lossy
Stream size : 254 MiB (3%)
Title : Original
Language : English
Default : No
Forced : No

Text
ID : 8
Format : PGS
Muxing mode : zlib
Codec ID : S_HDMV/PGS
Codec ID/Info : The same subtitle format used on BDs/HD-DVDs
Title : Subtitles
Language : Russian
Default : Yes
Forced : No
Свернуть

Автор рипа: Bathory
Не в сети
Профиль  
 Добавлено: 2015-06-18 01:46 (спустя 10 дней)
Аватара пользователя
Стаж: 7 лет 11 месяцев
Сообщений: 996
Лайков: 74
вот эт даа! на кассете сморел!!!! спс)) не то что форсажи)
Не в сети
Профиль  
Начать новую темуОтветить на тему  [ Сообщений: 2 ] 
Вы не можете начинать темы
Вы не можете отвечать на сообщения
Вы не можете редактировать свои сообщения
Вы не можете удалять свои сообщения