Правила форума

  • В этом разделе создание новых тем Запрещено.
  • Для создания новых тем пользуйтесь Корневым разделом DVD и HD фильмы.
Начать новую темуОтветить на тему  [ 1 сообщение ] 
Торрент файл
Размер: 4.45 GB • Зарегистрирован: 4 года 9 месяцев • Статус: T Временный релиз
Скачан: 97 раз • Желающих скачать: 0 • Поблагодарили: 8 раз
 Раздают: 0  |  0 KB/s  ]   Качают: 0  |  0 KB/s  ] 
 Полного источника не было 8 дней 
Сообщения
 Добавлено: 2012-03-02 18:13
Top-seeder
Аватара пользователя
Стаж: 9 лет
Сообщений: 1399
Спасибок: 28651
Лайков: 8
Бедная богатая девочка

Изображение


Информация о фильме
Название: Бедная богатая девочка
Оригинальное название: Young Adult
Год выхода: 2011
Жанр: драма, комедия
Режиссер: Джейсон Райтман
В ролях: Шарлиз Терон, Пэттон Освальт, Патрик Уилсон, Элизабет Ризер, Коллетт Вульф, Джилл Айкенберри, Ричард Бекинс, Мэри Бет Херт, Кейт Ноулин, Вирджиния ДаРе Полин

О фильме:
Трагикомедия про писательницу, подрабатывающую литературным негром и выдающую тинейджерские романы, отправившуюся в родной город на поиски бывшего бойфренда, который успел обзавестись семьей и ребенком.

Выпущено: США / Paramount Pictures, Denver and Delilah Productions, Indian Paintbrush
Продолжительность: 01:28:34
Озвучивание: Дублированное [звук с CAMRip]

Файл
Формат: MKV
Качество: BDRip 720p
Видео: 5170 kb/s, 1280x720
Аудио: Russian: MP3, 128 kb/s (2 ch) / English: DTS, 1510 kb/s (6 ch)
Субитры: English

MI
Общее
Уникальный идентификатор : 232762904534641867040612523217203133039 (0xAF1C81392B4AF671945813541A927A6F)
Полное имя : D:\Закачки\Бедная богатая девочка.mkv
Формат : Matroska
Размер файла : 4,45 Гбайт
Продолжительность : 1 ч. 33 м.
Общий поток : 6804 Кбит/сек
Название фильма : Bednaya.bogataya.devochka.2011.Dc.BDRip.720p.[uniongang.tv].mkv
Дата кодирования : UTC 2012-03-01 19:00:05
Программа кодирования : mkvmerge v5.2.0 ('I can't explain') built on Dec 18 2011 18:12:03
Библиотека кодирования : libebml v1.2.3 + libmatroska v1.3.0

Видео
Идентификатор : 1
Формат : AVC
Формат/Информация : Advanced Video Codec
Профиль формата : High@L4.1
Параметр CABAC формата : Да
Параметр ReFrames формата : 5 кадров
Параметры GOP формата : M=1, N=25
Идентификатор кодека : V_MPEG4/ISO/AVC
Продолжительность : 1 ч. 33 м.
Битрейт : 5170 Кбит/сек
Ширина : 1280 пикс.
Высота : 720 пикс.
Соотношение сторон : 16:9
Частота кадров : 23,976 кадр/сек
Цветовое пространство : YUV
Подвыборка цветности : 4:2:0
Битовая глубина : 8 бит
Тип развёртки : Прогрессивная
Бит/(Пиксели*Кадры) : 0.234
Размер потока : 3,29 Гбайт (74%)
Библиотека кодирования : x264 core 120 r2164 da19765
Настройки программы : cabac=1 / ref=5 / deblock=1:0:0 / analyse=0x3:0x113 / me=umh / subme=8 / psy=1 / psy_rd=1.00:0.00 / mixed_ref=1 / me_range=16 / chroma_me=1 / trellis=1 / 8x8dct=1 / cqm=0 / deadzone=21,11 / fast_pskip=1 / chroma_qp_offset=-2 / threads=12 / sliced_threads=0 / nr=0 / decimate=1 / interlaced=0 / bluray_compat=0 / constrained_intra=0 / bframes=3 / b_pyramid=2 / b_adapt=2 / b_bias=0 / direct=3 / weightb=1 / open_gop=0 / weightp=2 / keyint=240 / keyint_min=24 / scenecut=40 / intra_refresh=0 / rc_lookahead=50 / rc=2pass / mbtree=1 / bitrate=5170 / ratetol=1.0 / qcomp=0.60 / qpmin=0 / qpmax=69 / qpstep=4 / cplxblur=20.0 / qblur=0.5 / ip_ratio=1.40 / aq=1:1.00
Язык : English

Аудио #1
Идентификатор : 2
Формат : MPEG Audio
Версия формата : Version 1
Профиль формата : Layer 3
Идентификатор кодека : A_MPEG/L3
Идентификатор кодека/Подсказка : MP3
Продолжительность : 1 ч. 33 м.
Вид битрейта : Постоянный
Битрейт : 128 Кбит/сек
Каналы : 2 канала
Частота : 48,0 КГц
Метод сжатия : С потерями
Размер потока : 85,7 Мбайт (2%)
Язык : Russian

Аудио #2
Идентификатор : 3
Формат : DTS
Формат/Информация : Digital Theater Systems
Идентификатор кодека : A_DTS
Продолжительность : 1 ч. 33 м.
Вид битрейта : Постоянный
Битрейт : 1510 Кбит/сек
Каналы : 6 каналов
Расположение каналов : Front: L C R, Side: L R, LFE
Частота : 48,0 КГц
Битовая глубина : 24 бит
Метод сжатия : С потерями
Размер потока : 1011 Мбайт (22%)
Язык : English

Текст
Идентификатор : 4
Формат : UTF-8
Идентификатор кодека : S_TEXT/UTF8
Идентификатор кодека/Информация : UTF-8 Plain Text
Язык : English

Меню
00:00:00.000 : en:00:00:00.000
00:06:12.664 : en:00:06:12.664
00:11:11.462 : en:00:11:11.462
00:16:49.967 : en:00:16:49.967
00:24:26.590 : en:00:24:26.590
00:32:13.098 : en:00:32:13.098
00:39:00.838 : en:00:39:00.838
00:42:41.934 : en:00:42:41.934
00:50:00.080 : en:00:50:00.080
00:55:23.862 : en:00:55:23.862
01:01:39.571 : en:01:01:39.571
01:06:43.791 : en:01:06:43.791
01:12:09.742 : en:01:12:09.742
01:16:24.330 : en:01:16:24.330
01:21:42.314 : en:01:21:42.314
01:26:35.857 : en:01:26:35.857
01:28:50.325 : en:01:28:50.325
Свернуть

Скриншоты
ИзображениеИзображениеИзображениеИзображение
Свернуть
Не в сети
Профиль  
Начать новую темуОтветить на тему  [ 1 сообщение ] 
Вы не можете начинать темы
Вы не можете отвечать на сообщения
Вы не можете редактировать свои сообщения
Вы не можете удалять свои сообщения