Правила форума

  • В этом разделе создание новых тем Запрещено.
  • Для создания новых тем пользуйтесь Корневым разделом DVD и HD фильмы.
Начать новую темуОтветить на тему  [ Сообщений: 6 ] 
Торрент файл
Размер: 6.49 GB • Зарегистрирован: 4 года 3 месяца • Статус: Проверено
Скачан: 243 раза • Желающих скачать: 0 • Поблагодарили: 28 раз
 Раздают: 0  |  0 KB/s  ]   Качают: 0  |  0 KB/s  ] 
 Полного источника не было 1 месяц 25 дней 
Сообщения
 Добавлено: 2012-09-01 14:18
Аватара пользователя
Стаж: 8 лет 11 месяцев
Сообщений: 19
Спасибок: 557
Белоснежка и охотник / Snow White and the Huntsman

Изображение


Год выпуска: 2012
Страна: США (Roth Films, Universal Pictures)
Слоган: «Лишь одна будет править»
Жанр: фэнтези, боевик, драма, приключения
Продолжительность: 02:11:33
Версия фильма: Extended cut / Расширенная версия
Перевод: Авторский (Вячеслав Замез) (zamez) + Оригинальная звуковая дорожка

Режиссёр: Руперт Сандерс
Сценарист: Ивэн Догерти, Джон Ли Хэнкок, Хуссейн Амини
Продюсер: Сэм Мерсер, Палак Патель, Джо Рот
В ролях: Кристен Стюарт, Крис Хемсворт, Шарлиз Терон, Сэм Клафлин, Сэм Спруэлл, Иэн МакШейн, Боб Хоскинс, Рэй Уинстон, Ник Фрост, Эдди Марсан
Описание: Тьма приближается. Она прячется в лесах, спускается с гор, застилает небо. Никто не укроется от магического зеркала Королевы, живущей в неприступном замке, охраняемом бесчисленной армией. Но над Белоснежкой злые чары не властны. И тогда Королева отправляет Охотника, чтобы он принес ей сердце соперницы. Но очарованный Белоснежкой, он встает на ее сторону. Грядет великая битва. Лишь одна будет править.
Рейтинг MPAA: Рейтинг PG-13 (Дети до 13 лет допускаются на фильм только с родителями)
Мировая премьера: 30 мая 2012
Премьера в России: 14 июня 2012
Изображение
Изображение

Качество: BDRip 720p
Формат: MKV
Видео кодек: MPEG-4 AVC
Аудио кодек: AC3 (Dolby Digital)
Видео: MPEG-4 AVC, 5100 Кбит/с, 1280x544, 23.976 кадр/с
Аудио #1: AC3, 6 ch, 448 Кбит/с [Любительский (одноголосый закадровый)(zamez)]
Аудио #2: DTS, 6 ch, 1510 Кбит/с [Оригинальная звуковая дорожка]
Скриншоты
Изображение
Изображение
Изображение
Изображение
Свернуть

MediaInfo
General
Unique ID : 170449230487850918267300730504418707912 (0x803B53E41C24B906A16E88363A0C49C8)
Format : Matroska
Format version : Version 2
File size : 6.49 GiB
Duration : 2h 11mn
Overall bit rate : 7 058 Kbps
Movie name : --SCHUMAHER--
Encoded date : UTC 2012-08-31 21:00:34
Writing application : mkvmerge v5.7.0 ('The Whirlwind') built on Jul 8 2012 20:08:51
Writing library : libebml v1.2.3 + libmatroska v1.3.0
Video #1
ID : 1
Format : AVC
Format/Info : Advanced Video Codec
Format profile : High@L4.1
Format settings, CABAC : Yes
Format settings, ReFrames : 12 frames
Codec ID : V_MPEG4/ISO/AVC
Duration : 2h 11mn
Bit rate : 5 100 Kbps
Width : 1 280 pixels
Height : 544 pixels
Display aspect ratio : 2.35:1
Frame rate : 23.976 fps
Color space : YUV
Chroma subsampling : 4:2:0
Bit depth : 8 bits
Scan type : Progressive
Bits/(Pixel*Frame) : 0.305
Stream size : 4.56 GiB (70%)
Writing library : x264 core 125 r2208 d9d2288
Encoding settings : cabac=1 / ref=12 / deblock=1:-3:-3 / analyse=0x3:0x113 / me=umh / subme=10 / psy=1 / psy_rd=1.10:0.00 / mixed_ref=1 / me_range=32 / chroma_me=1 / trellis=2 / 8x8dct=1 / cqm=0 / deadzone=21,11 / fast_pskip=0 / chroma_qp_offset=-2 / threads=18 / lookahead_threads=3 / sliced_threads=0 / nr=0 / decimate=1 / interlaced=0 / bluray_compat=0 / constrained_intra=0 / bframes=8 / b_pyramid=2 / b_adapt=2 / b_bias=0 / direct=3 / weightb=1 / open_gop=0 / weightp=2 / keyint=240 / keyint_min=24 / scenecut=40 / intra_refresh=0 / rc_lookahead=120 / rc=2pass / mbtree=1 / bitrate=5100 / ratetol=1.0 / qcomp=0.70 / qpmin=0 / qpmax=69 / qpstep=4 / cplxblur=20.0 / qblur=0.5 / ip_ratio=1.20 / aq=1:0.85
Language : English
Default : Yes
Forced : Yes
Audio #2
ID : 2
Format : AC-3
Format/Info : Audio Coding 3
Mode extension : CM (complete main)
Codec ID : A_AC3
Duration : 2h 11mn
Bit rate mode : Constant
Bit rate : 448 Kbps
Channel(s) : 6 channels
Channel positions : Front: L C R, Side: L R, LFE
Sampling rate : 48.0 KHz
Bit depth : 16 bits
Compression mode : Lossy
Stream size : 422 MiB (6%)
Language : Russian
Default : Yes
Forced : Yes
Audio #3
ID : 3
Format : DTS
Format/Info : Digital Theater Systems
Codec ID : A_DTS
Duration : 2h 11mn
Bit rate mode : Constant
Bit rate : 1 510 Kbps
Channel(s) : 6 channels
Channel positions : Front: L C R, Side: L R, LFE
Sampling rate : 48.0 KHz
Bit depth : 24 bits
Compression mode : Lossy
Stream size : 1.39 GiB (21%)
Language : English
Default : No
Forced : No
Text #4
ID : 4
Format : UTF-8
Codec ID : S_TEXT/UTF8
Codec ID/Info : UTF-8 Plain Text
Title : Full
Language : English
Default : No
Forced : No
Text #5
ID : 5
Format : UTF-8
Codec ID : S_TEXT/UTF8
Codec ID/Info : UTF-8 Plain Text
Title : Full SDH
Language : English
Default : No
Forced : No
Menu
00:00:00.000 : en:00:00:00.000
00:05:05.055 : en:00:05:05.055
00:10:26.793 : en:00:10:26.793
00:19:48.854 : en:00:19:48.854
00:27:46.456 : en:00:27:46.456
00:32:40.458 : en:00:32:40.458
00:38:04.490 : en:00:38:04.490
00:44:02.098 : en:00:44:02.098
00:51:08.649 : en:00:51:08.649
00:58:17.869 : en:00:58:17.869
01:02:08.558 : en:01:02:08.558
01:08:57.967 : en:01:08:57.967
01:13:36.537 : en:01:13:36.537
01:16:59.073 : en:01:16:59.073
01:26:57.003 : en:01:26:57.003
01:36:30.993 : en:01:36:30.993
01:43:37.795 : en:01:43:37.795
01:49:51.460 : en:01:49:51.460
01:53:44.734 : en:01:53:44.734
02:01:50.094 : en:02:01:50.094

Свернуть


Последний раз редактировалось temochkin 2012-09-02 00:20, всего редактировалось 1 раз.
Не в сети
Профиль  
 Добавлено: 2012-09-01 15:32 (спустя 1 час 14 минут)
Аватара пользователя
Стаж: 5 лет 10 месяцев
Сообщений: 44
Неподскажешь расширенную версию стоит смотреть после того как посмотрел простую?! :ny_tik:
Не в сети
Профиль  
 Добавлено: 2012-09-01 16:01 (спустя 29 минут)
Аватара пользователя
Стаж: 8 лет 11 месяцев
Сообщений: 19
Спасибок: 557
Разница между ними минимальна, в основном несколько дополнительных сцен, в которые не попадает ничего значительного.
Не в сети
Профиль  
 Добавлено: 2012-09-02 08:03 (спустя 16 часов)
Аватара пользователя
Стаж: 7 лет 11 месяцев
Сообщений: 786
Спасибок: 25
Лайков: 9
:a_g_a: Спасибо за кино
Не в сети
Профиль  
 Добавлено: 2012-09-02 17:12 (спустя 9 часов)
Стаж: 9 лет 1 месяц
Возраст: 32
Сообщений: 263
Лайков: 9
Фильм очень понравился, несмотря на некоторое количество недоработок.
Не в сети
Профиль  
 Добавлено: 2012-09-04 20:11 (спустя 2 дня 2 часа)
Стаж: 8 лет 1 месяц
Сообщений: 1
Спасибок: 2
А как перевод, нормальный???
Не в сети
Профиль  
Начать новую темуОтветить на тему  [ Сообщений: 6 ] 
Вы не можете начинать темы
Вы не можете отвечать на сообщения
Вы не можете редактировать свои сообщения
Вы не можете удалять свои сообщения